<?xml version="1.0" standalone="no"?>
<!DOCTYPE svg PUBLIC "-//W3C//DTD SVG 1.1//EN" "http://www.w3.org/Graphics/SVG/1.1/DTD/svg11.dtd">
<svg xmlns="http://www.w3.org/2000/svg">
<defs >
<font id="Asap" horiz-adv-x="535" ><font-face
    font-family="Asap"
    units-per-em="1000"
    panose-1="2 15 5 4 3 2 2 6 2 3"
    ascent="934"
    descent="-212"
    alphabetic="0" />
<glyph unicode=" " glyph-name="space" horiz-adv-x="240" />
<glyph unicode="!" glyph-name="exclam" horiz-adv-x="294" d="M111 202T111 224V680Q111 702 151 702H171Q210 702 210 680L201 528Q193 373 183 224Q181 202 152 202H141Q111 202 111 224ZM99 -2T99 20V86Q99 108 139 108H156Q196 108 196 86V20Q196 -2 156
-2H139Q99 -2 99 20Z" />
<glyph unicode="&quot;" glyph-name="quotedbl" horiz-adv-x="320" d="M75 472T73 484L51 680Q49 691 59 696T91 702H101Q122 702 132 697T141 680L118 484Q117 472 96 472H95Q75 472 73 484ZM203 472T201 484L179 680Q177 691 187 696T219 702H229Q250 702 260
697T269 680L246 484Q245 472 224 472H223Q203 472 201 484Z" />
<glyph unicode="#" glyph-name="numbersign" horiz-adv-x="534" d="M91 -2T85 2T78 15Q78 18 93 104Q93 106 110 196H34Q24 196 19 203T14 226V243Q14 259 19 266T34 273H125L151 420H70Q60 420 55 427T50 450V467Q50 483 55 490T70 497H164L195 664Q198 676 205
681T239 686H243Q271 686 271 671L238 497H357L387 664Q390 676 397 681T431 686H436Q464 686 464 671L433 497H501Q512 497 516 490T521 467V450Q521 434 517 427T501 420H418L393 273H469Q480 273 484 266T489 243V226Q489 210 485 203T469 196H377L346 20Q344
8 336 3T303 -2H299Q284 -2 278 2T271 15Q271 18 286 104Q286 106 303 196H185L153 20Q150 8 143 3T110 -2H106Q91 -2 85 2ZM318 273L344 420H226L200 273H318Z" />
<glyph unicode="$" glyph-name="dollar" horiz-adv-x="500" d="M464 109T419 59T287 -3V-53Q287 -71 261 -71H256Q230 -71 230 -53V-6Q165 -5 104 17Q72 28 54 42T35 67Q35 79 48 100T70 121Q72 121 78 118T91 110Q125 93 156 83T230 71V325H229Q134 363 91 410T48
522Q48 596 95 644T230 700V741Q230 759 256 759H261Q287 759 287 741V701Q319 699 350 692T404 673Q431 660 431 645Q431 634 419 613T399 592Q395 592 385 597T368 606Q329 624 287 629V396Q379 355 421 306T464 191Q464 109 419 59ZM132 489T157 466T230 421V628Q184
621 158 595T132 526Q132 489 157 466ZM331 84T354 108T378 181Q378 224 355 251T287 300V76Q331 84 354 108Z" />
<glyph unicode="%" glyph-name="percent" horiz-adv-x="765" d="M139 381T100 416T60 542Q60 706 197 706Q254 706 294 670T334 542Q334 452 294 417T197 381Q139 381 100 416ZM174 -7T168 -5T161 2Q161 7 165 12L538 687Q548 706 578 706H583Q594 706 600 704T607
697Q607 695 603 687L230 12Q220 -7 190 -7H185Q174 -7 168 -5ZM270 436T270 542Q270 590 256 621T197 652Q153 652 140 621T126 542Q126 495 140 466T197 436Q270 436 270 542ZM510 -5T471 30T431 156Q431 320 568 320Q625 320 665 284T705 156Q705 66 665 31T568
-5Q510 -5 471 30ZM641 50T641 156Q641 204 627 235T568 266Q524 266 511 235T497 156Q497 109 511 80T568 50Q641 50 641 156Z" />
<glyph unicode="&amp;" glyph-name="ampersand" horiz-adv-x="624" d="M599 71T605 53T611 24Q611 -6 538 -6Q510 -6 483 3T436 37Q406 19 365 7T273 -6Q219 -6 168 15T84 84T50 203Q50 276 88 325T176 387V391Q131 409 102 447T73 538Q73 620 128 663T275 706Q308
706 334 699T360 674Q360 665 354 645T338 625Q333 625 316 629T277 634Q208 634 183 602T157 529Q157 501 171 474T215 427T291 408H409L421 513Q424 535 453 535H463Q493 535 493 513V408H577Q588 408 592 401T597 378V366Q597 350 593 343T577 336H493V140Q493
98 507 82T547 66Q566 66 575 68T590 71Q599 71 605 53ZM137 130T181 98T281 66Q314 66 348 77T411 103Q409 121 409 132V336H287Q214 336 176 306T137 204Q137 130 181 98Z" />
<glyph unicode="&apos;" glyph-name="quotesingle" horiz-adv-x="192" d="M75 472T73 484L51 680Q49 691 59 696T91 702H101Q122 702 132 697T141 680L118 484Q117 472 96 472H95Q75 472 73 484Z" />
<glyph unicode="(" glyph-name="parenleft" horiz-adv-x="301" d="M250 -212T239 -201Q154 -123 105 6T55 286Q55 435 105 563T239 773Q249 783 260 783Q270 783 280 776T290 758Q290 746 281 736Q213 656 175 539T136 286Q136 151 174 34T280 -164Q289 -175 289
-184Q289 -192 280 -202T261 -212Q250 -212 239 -201Z" />
<glyph unicode=")" glyph-name="parenright" horiz-adv-x="301" d="M30 -211T20 -203T9 -185Q9 -179 16 -170Q85 -90 125 29T165 286Q165 421 127 539T21 736Q12 747 12 756Q12 764 21 774T40 784Q51 784 62 773Q147 695 196 566T246 286Q246 137 196 9T62 -201Q52
-211 41 -211Q30 -211 20 -203Z" />
<glyph unicode="*" glyph-name="asterisk" horiz-adv-x="373" d="M92 414T85 420T77 434Q77 441 82 447L153 546L55 578Q41 582 41 593Q41 604 46 610T59 617Q65 617 68 616L167 584V689Q167 709 187 709Q207 709 207 689V584L306 616Q309 617 315 617Q322 617
327 611T333 594Q333 582 319 578L220 546L292 447Q297 441 297 434Q297 427 290 421T275 414Q266 414 260 423L187 524L114 423Q108 414 99 414Q92 414 85 420Z" />
<glyph unicode="+" glyph-name="plus" horiz-adv-x="560" d="M261 -2T254 3T247 18V197H70Q60 197 55 204T50 227V234Q50 250 55 257T70 264H247V443Q247 454 254 458T277 463H284Q300 463 307 458T314 443V264H490Q501 264 505 257T510 234V227Q510 211 506 204T490
197H314V18Q314 8 307 3T284 -2H277Q261 -2 254 3Z" />
<glyph unicode="," glyph-name="comma" horiz-adv-x="198" d="M32 -116T23 -113T14 -101Q14 -95 23 -77Q57 -9 57 76Q57 91 67 99T97 108H106Q125 108 135 101T146 80Q146 24 128 -20T86 -90T43 -116Q32 -116 23 -113Z" />
<glyph unicode="-" glyph-name="hyphen" horiz-adv-x="320" d="M55 230T50 237T45 260V270Q45 286 50 293T65 300H255Q266 300 270 293T275 270V260Q275 244 271 237T255 230H65Q55 230 50 237Z" />
<glyph unicode="." glyph-name="period" horiz-adv-x="198" d="M51 -2T51 20V86Q51 108 91 108H108Q148 108 148 86V20Q148 -2 108 -2H91Q51 -2 51 20Z" />
<glyph unicode="/" glyph-name="slash" horiz-adv-x="422" d="M38 -76T32 -73T26 -61Q26 -56 35 -33L332 679Q338 694 346 698T370 703H374Q387 703 391 700T396 687Q396 678 384 651L87 -61Q83 -70 76 -73T56 -76H52Q38 -76 32 -73Z" />
<glyph unicode="0" glyph-name="zero" d="M204 -6T153 32T71 151T40 350Q40 469 71 549T153 667T267 706Q330 706 382 668T465 549T496 350Q496 231 465 151T382 33T267 -6Q204 -6 153 32ZM306 66T338 95T391 187T411 350Q411 449 391 512T339 605T267 634Q229
634 197 606T145 513T125 350Q125 251 144 187T196 95T267 66Q306 66 338 95Z" />
<glyph unicode="1" glyph-name="one" d="M70 0T65 7T60 30V42Q60 58 65 65T80 72H254V611L77 581Q68 581 63 598T57 632Q57 647 75 651L307 702Q319 702 328 696T338 681V72H486Q497 72 501 65T506 42V30Q506 14 502 7T486 0H80Q70 0 65 7Z" />
<glyph unicode="2" glyph-name="two" d="M63 0T57 14T51 44Q51 57 55 61L313 385Q344 426 358 450T377 490T381 530Q381 578 348 606T256 634Q214 634 186 623T129 594Q111 583 106 583Q99 583 87 602T74 633Q74 653 105 669T179 696T254 706Q352 706 409 661T467
536Q467 486 452 449T395 355T238 160L165 71H453Q464 71 468 64T473 41V30Q473 14 469 7T453 0H71Q63 0 57 14Z" />
<glyph unicode="3" glyph-name="three" d="M190 -6T144 3T72 25T45 51Q45 65 58 83T80 101Q87 101 108 93Q172 66 238 66Q294 66 338 98T382 204Q382 276 344 306T232 336H199Q189 336 184 343T179 366V377Q179 393 184 400T199 407H228Q276 407 305 428T348 480T361
538Q361 575 334 604T242 634Q200 634 173 627T120 608Q103 601 98 601Q90 601 78 621T65 653Q65 674 128 690T244 706Q336 706 391 661T446 529Q446 480 417 444T343 391V387Q393 374 431 325T469 203Q469 131 436 84T351 16T246 -6Q190 -6 144 3Z" />
<glyph unicode="4" glyph-name="four" d="M346 -2T346 20V167H42Q34 167 26 185T18 218Q18 227 20 229L349 688Q360 702 383 702H399Q429 702 429 680V239H496Q507 239 511 232T516 209V197Q516 181 512 174T496 167H429V20Q429 -2 399 -2H376Q346 -2 346 20ZM346
239V487Q346 538 351 564L347 566L117 239H346Z" />
<glyph unicode="5" glyph-name="five" d="M182 -6T139 3T72 27T47 54Q47 68 60 86T82 104Q87 104 109 95Q138 82 166 74T233 66Q298 66 343 104T388 213Q388 280 342 315T208 350H123Q107 350 101 357T95 380L112 670Q113 686 120 693T144 700H410Q421 700 425
693T430 670V658Q430 642 426 635T410 628H193L180 422H232Q292 422 347 402T438 336T474 213Q474 94 405 44T234 -6Q182 -6 139 3Z" />
<glyph unicode="6" glyph-name="six" d="M159 -5T105 60T51 247Q51 379 113 482T255 643T376 702Q390 702 399 682T409 649Q409 641 401 638Q302 597 241 529T154 372Q211 405 289 405Q342 405 385 380T454 309T480 203Q480 141 452 94T374 21T264 -5Q159 -5 105
60ZM298 67T327 81T375 126T395 199Q395 267 357 300T264 333Q199 333 139 299Q135 259 135 239Q135 144 173 106T269 67Q298 67 327 81Z" />
<glyph unicode="7" glyph-name="seven" d="M117 -2T107 2T97 16Q97 18 101 28L390 628H75Q65 628 60 635T55 658V670Q55 686 60 693T75 700H470Q476 700 483 682T490 649Q490 644 488 638L192 14Q188 7 178 3T152 -2H140Q117 -2 107 2Z" />
<glyph unicode="8" glyph-name="eight" d="M172 -6T112 47T51 202Q51 275 80 315T162 380Q124 403 102 441T79 533Q79 615 132 660T269 706Q352 706 406 661T461 533Q461 426 364 381Q421 355 452 316T484 202Q484 100 424 47T267 -6Q172 -6 112 47ZM377 458T377
533Q377 584 347 609T269 634Q222 634 193 609T163 533Q163 495 179 472T222 436T291 408Q377 458 377 533ZM323 66T360 101T398 202Q398 243 380 268T335 307T261 338L229 350Q186 324 162 290T137 202Q137 137 174 102T267 66Q323 66 360 101Z" />
<glyph unicode="9" glyph-name="nine" d="M145 -2T136 18T126 51Q126 59 134 62Q233 103 294 171T381 328Q324 295 246 295Q193 295 150 320T81 391T55 497Q55 559 83 606T161 679T271 705Q376 705 430 640T484 453Q484 321 422 218T280 57T159 -2Q145 -2 136
18ZM337 367T396 401Q400 441 400 461Q400 556 362 594T266 633Q237 633 208 619T160 574T140 501Q140 433 178 400T271 367Q337 367 396 401Z" />
<glyph unicode=":" glyph-name="colon" horiz-adv-x="198" d="M51 415T51 437V503Q51 525 91 525H108Q148 525 148 503V437Q148 415 108 415H91Q51 415 51 437ZM51 -2T51 20V86Q51 108 91 108H108Q148 108 148 86V20Q148 -2 108 -2H91Q51 -2 51 20Z" />
<glyph unicode=";" glyph-name="semicolon" horiz-adv-x="198" d="M51 415T51 437V503Q51 525 91 525H108Q148 525 148 503V437Q148 415 108 415H91Q51 415 51 437ZM32 -116T23 -113T14 -101Q14 -95 23 -77Q57 -9 57 76Q57 91 67 99T97 108H106Q125 108 135 101T146
80Q146 24 128 -20T86 -90T43 -116Q32 -116 23 -113Z" />
<glyph unicode="&lt;" glyph-name="less" horiz-adv-x="560" d="M488 6T480 9L69 183Q46 193 46 218V235Q46 260 69 270L480 444Q488 447 495 447Q504 447 509 441T515 421V407Q515 382 492 372L136 227L492 81Q515 71 515 46V32Q515 20 510 13T495 6Q488 6 480 9Z" />
<glyph unicode="=" glyph-name="equal" horiz-adv-x="560" d="M60 268T55 275T50 298V311Q50 327 55 334T70 341H490Q501 341 505 334T510 311V298Q510 282 506 275T490 268H70Q60 268 55 275ZM60 104T55 111T50 134V147Q50 163 55 170T70 177H490Q501 177 505
170T510 147V134Q510 118 506 111T490 104H70Q60 104 55 111Z" />
<glyph unicode="&gt;" glyph-name="greater" horiz-adv-x="560" d="M57 6T52 13T46 32V46Q46 71 69 81L425 227L69 372Q46 382 46 407V421Q46 434 51 440T66 447Q73 447 81 444L492 270Q515 260 515 235V218Q515 193 492 183L81 9Q74 6 66 6Q57 6 52 13Z" />
<glyph unicode="?" glyph-name="question" horiz-adv-x="445" d="M141 202T141 225Q141 259 163 301T227 384Q277 434 299 464T322 528Q322 632 196 632Q168 632 145 625T96 607Q76 598 72 598Q65 598 53 618T40 649Q40 673 96 689T212 706Q276 706 322 684T393
623T417 538Q417 491 393 453T322 370Q274 323 250 292T219 222Q217 212 210 207T186 202H171Q141 202 141 225ZM128 -2T128 20V86Q128 108 168 108H185Q225 108 225 86V20Q225 -2 185 -2H168Q128 -2 128 20Z" />
<glyph unicode="@" glyph-name="at" horiz-adv-x="974" d="M646 705T721 665T837 551T879 380Q879 290 852 215T778 97T669 54Q624 54 597 78T570 137V144Q545 98 510 76T435 54Q401 54 369 70T313 127T290 236Q290 314 316 375T390 470T501 505Q538 505 566 491T612
458Q615 466 619 479T629 497T647 502H653Q675 502 675 481Q642 172 642 149Q642 107 682 107Q718 107 751 145T805 246T825 380Q825 464 790 527T692 626T546 661Q437 661 346 605T203 451T150 237Q150 143 184 71T280 -42T422 -82Q465 -82 493 -76T547 -60Q568
-53 576 -53Q590 -53 590 -76Q590 -102 534 -114T422 -126Q326 -126 252 -81T137 47T96 237Q96 367 155 474T318 643T546 705Q646 705 721 665ZM581 265T587 327T599 409Q558 443 507 443Q428 443 396 386T363 241Q363 174 387 145T451 115Q485 115 520 148T580
256Q581 265 587 327Z" />
<glyph unicode="A" glyph-name="A" horiz-adv-x="613" d="M12 -2T12 15Q12 20 15 29L252 686Q258 702 292 702H321Q357 702 361 686L598 28Q601 21 601 15Q601 -2 558 -2H550Q515 -2 510 14L451 178H157L100 14Q95 -2 60 -2H55Q12 -2 12 15ZM424 254L319 552Q314
568 307 610H305Q297 570 290 552L185 254H424Z" />
<glyph unicode="B" glyph-name="B" horiz-adv-x="593" d="M111 0T104 7T97 30V670Q97 686 104 693T127 700H306Q415 700 472 652T530 523Q530 473 497 428T420 371V367Q479 350 519 308T560 201Q560 0 299 0H127Q111 0 104 7ZM301 398Q361 398 400 432T439 515Q439
571 405 597T297 624H185V398H301ZM331 76Q397 76 433 110T469 205Q469 261 430 291T314 322H185V76H331Z" />
<glyph unicode="C" glyph-name="C" horiz-adv-x="619" d="M214 -6T136 80T57 350Q57 706 381 706Q430 706 475 696T548 670Q572 656 572 644Q572 630 560 608T538 586Q535 586 513 598T458 620T383 630Q262 630 205 563T148 349Q148 205 204 138T379 70Q428 70
463 81T532 111Q546 120 551 120Q560 120 573 98T586 66Q586 51 554 33Q524 16 478 5T379 -6Q214 -6 136 80Z" />
<glyph unicode="D" glyph-name="D" horiz-adv-x="695" d="M111 0T104 7T97 30V670Q97 686 104 693T127 700H329Q469 700 553 617T638 350Q638 166 554 83T329 0H127Q111 0 104 7ZM322 76Q423 76 485 142T547 350Q547 491 485 557T322 624H185V76H322Z" />
<glyph unicode="E" glyph-name="E" horiz-adv-x="546" d="M112 0T105 7T98 30V670Q98 686 105 693T128 700H477Q488 700 492 693T497 670V654Q497 638 493 631T477 624H186V396H447Q458 396 462 389T467 366V350Q467 334 463 327T447 320H186V76H478Q489 76 493
69T498 46V30Q498 14 494 7T478 0H128Q112 0 105 7Z" />
<glyph unicode="F" glyph-name="F" horiz-adv-x="503" d="M97 -2T97 20V670Q97 686 104 693T127 700H442Q453 700 457 693T462 670V654Q462 638 458 631T442 624H185V376H424Q435 376 439 369T444 346V330Q444 314 440 307T424 300H185V20Q185 -2 145 -2H137Q97
-2 97 20Z" />
<glyph unicode="G" glyph-name="G" horiz-adv-x="672" d="M575 361T582 354T589 331V66Q589 27 527 11T366 -6Q215 -6 136 81T57 344Q57 706 381 706Q428 706 472 697T544 672T572 644Q572 630 560 608T538 586Q535 586 513 598T458 620T383 630Q256 630 202 560T148
353Q148 223 198 147T372 70Q409 70 444 73T501 83V285H384Q374 285 369 292T364 315V331Q364 347 369 354T384 361H559Q575 361 582 354Z" />
<glyph unicode="H" glyph-name="H" horiz-adv-x="733" d="M98 -2T98 20V680Q98 702 138 702H146Q186 702 186 680V397H548V680Q548 702 588 702H596Q636 702 636 680V20Q636 -2 596 -2H588Q548 -2 548 20V321H186V20Q186 -2 146 -2H138Q98 -2 98 20Z" />
<glyph unicode="I" glyph-name="I" horiz-adv-x="283" d="M97 -2T97 20V680Q97 702 137 702H145Q185 702 185 680V20Q185 -2 145 -2H137Q97 -2 97 20Z" />
<glyph unicode="J" glyph-name="J" horiz-adv-x="402" d="M68 -6T37 1T6 26Q6 36 12 58T28 81Q33 81 51 77T91 72Q165 72 198 101T231 195V680Q231 702 271 702H279Q319 702 319 680V205Q319 -6 107 -6Q68 -6 37 1Z" />
<glyph unicode="K" glyph-name="K" horiz-adv-x="576" d="M97 -2T97 20V680Q97 702 137 702H145Q185 702 185 680V374H189L435 688Q446 702 489 702H499Q516 702 525 699T534 689Q534 680 524 669L274 357L577 28Q586 18 586 12Q586 4 576 1T542 -2H530Q508 -2
496 0T475 11L189 333H185V20Q185 -2 145 -2H137Q97 -2 97 20Z" />
<glyph unicode="L" glyph-name="L" horiz-adv-x="484" d="M111 0T104 7T97 30V680Q97 702 137 702H145Q185 702 185 680V76H460Q471 76 475 69T480 46V30Q480 14 476 7T460 0H127Q111 0 104 7Z" />
<glyph unicode="M" glyph-name="M" horiz-adv-x="843" d="M388 195T381 208L203 518Q194 533 179 563L175 562Q177 544 177 507V20Q177 -2 137 -2H130Q90 -2 90 20V680Q90 702 130 702H166Q198 702 208 684L397 356Q415 325 423 293Q431 318 454 359L638 684Q648
702 680 702H713Q753 702 753 680V20Q753 -2 713 -2H706Q666 -2 666 20V501Q666 538 668 556L664 557Q649 527 640 512L465 208Q458 195 443 195H403Q388 195 381 208Z" />
<glyph unicode="N" glyph-name="N" horiz-adv-x="719" d="M90 -2T90 20V680Q90 702 130 702H151Q167 702 176 698T193 683L507 209Q524 184 540 149L544 150Q542 173 542 218V680Q542 702 582 702H589Q629 702 629 680V20Q629 -2 589 -2H569Q543 -2 534 12L212
498Q195 523 179 558L175 557Q177 534 177 489V20Q177 -2 137 -2H130Q90 -2 90 20Z" />
<glyph unicode="O" glyph-name="O" horiz-adv-x="731" d="M215 -6T136 85T57 352Q57 527 135 616T365 706Q516 706 595 617T674 352Q674 177 595 86T365 -6Q215 -6 136 85ZM471 70T527 142T583 352Q583 489 527 559T365 630Q259 630 204 560T148 352Q148 214 203
142T365 70Q471 70 527 142Z" />
<glyph unicode="P" glyph-name="P" horiz-adv-x="570" d="M85 -2T85 20V670Q85 686 92 693T115 700H318Q406 700 473 658T541 504Q541 421 502 375T415 314T328 298H173V20Q173 -2 133 -2H125Q85 -2 85 20ZM329 374Q372 374 411 403T450 504Q450 571 410 597T315
624H173V374H329Z" />
<glyph unicode="Q" glyph-name="Q" horiz-adv-x="731" d="M634 -148T476 -86T246 6Q57 81 57 347Q57 523 136 614T365 706Q516 706 595 614T674 347Q674 205 623 118T473 5V1L670 -61Q684 -66 684 -76Q684 -83 678 -101T662 -133T642 -148Q634 -148 476 -86ZM470
67T526 139T583 347Q583 483 526 556T365 630Q261 630 205 557T148 347Q148 211 204 139T365 67Q470 67 526 139Z" />
<glyph unicode="R" glyph-name="R" horiz-adv-x="610" d="M97 -2T97 20V670Q97 686 104 693T127 700H295Q415 700 475 658T536 523Q536 461 506 419T421 354V350Q450 340 469 311T511 225L589 28Q592 19 592 14Q592 -2 550 -2H540Q525 -2 514 2T500 14L424 210Q402
267 369 287T275 308H185V20Q185 -2 145 -2H137Q97 -2 97 20ZM317 384Q352 384 381 401T428 446T445 507Q445 566 409 595T310 624H185V384H317Z" />
<glyph unicode="S" glyph-name="S" horiz-adv-x="500" d="M184 -6T133 8T56 42Q37 56 37 67Q37 79 50 100T72 121Q76 121 93 111Q124 94 159 82T244 70Q302 70 338 102T375 188Q375 225 355 249T307 288T224 324Q166 347 132 366T74 422T50 521Q50 575 77 617T155
682T272 706Q306 706 348 697T413 671Q433 659 433 645Q433 634 421 613T401 592Q396 592 387 597T374 604Q324 630 270 630Q212 630 177 600T141 517Q141 483 158 462T198 431T277 398Q337 375 375 354T439 292T466 188Q466 98 406 46T244 -6Q184 -6 133 8Z" />
<glyph unicode="T" glyph-name="T" horiz-adv-x="549" d="M232 -2T232 20V624H40Q30 624 25 631T20 654V670Q20 686 25 693T40 700H509Q520 700 524 693T529 670V654Q529 638 525 631T509 624H320V20Q320 -2 280 -2H272Q232 -2 232 20Z" />
<glyph unicode="U" glyph-name="U" horiz-adv-x="712" d="M224 -6T154 54T83 224V680Q83 702 123 702H131Q171 702 171 680V221Q171 177 195 143T261 89T356 70Q409 70 451 89T517 143T541 221V680Q541 702 581 702H589Q629 702 629 680V224Q629 115 558 55T356
-6Q224 -6 154 54Z" />
<glyph unicode="V" glyph-name="V" horiz-adv-x="617" d="M258 -2T253 14L24 672Q21 680 21 685Q21 702 64 702H74Q109 702 114 686L285 197Q301 150 310 100H313Q325 155 339 198L507 686Q512 702 547 702H553Q596 702 596 685Q596 680 593 671L364 14Q359 -2
324 -2H293Q258 -2 253 14Z" />
<glyph unicode="W" glyph-name="W" horiz-adv-x="910" d="M207 -2T203 14L32 671Q29 683 29 685Q29 702 72 702H82Q118 702 122 686L239 230Q259 152 264 101H268L291 197L412 685Q416 702 451 702H467Q502 702 506 685L621 230Q629 199 636 162T645 101H649Q665
173 671 196L792 686Q796 702 832 702H838Q881 702 881 685L878 671L705 14Q701 -2 665 -2H624Q588 -2 584 14L489 369Q478 410 469 462T456 551H452Q449 514 442 472T428 403L324 14Q320 -2 284 -2H243Q207 -2 203 14Z" />
<glyph unicode="X" glyph-name="X" horiz-adv-x="611" d="M41 -2T31 2T20 15Q20 22 28 33L252 365L52 667Q44 678 44 685Q44 702 90 702H104Q121 702 131 699T147 687L307 446L472 688Q481 702 515 702H521Q546 702 556 698T567 685Q567 678 559 667L359 370L584
33Q592 22 592 15Q592 -2 546 -2H530Q513 -2 503 1T487 13L303 288L117 12Q108 -2 74 -2H66Q41 -2 31 2Z" />
<glyph unicode="Y" glyph-name="Y" horiz-adv-x="559" d="M235 -2T235 20V359L26 667Q18 678 18 685Q18 702 64 702H75Q92 702 102 699T118 687L282 441L450 688Q459 702 495 702H502Q523 701 532 697T541 685Q541 678 533 667L323 356V20Q323 -2 283 -2H275Q235
-2 235 20Z" />
<glyph unicode="Z" glyph-name="Z" horiz-adv-x="616" d="M55 0T47 19T38 53Q38 61 41 65L451 624H91Q80 624 76 632T71 658V666Q71 684 75 692T91 700H549Q555 700 563 681T571 647Q571 640 568 635L158 76H549Q560 76 564 68T569 42V34Q569 16 565 8T549 0H62Q55
0 47 19Z" />
<glyph unicode="[" glyph-name="bracketleft" horiz-adv-x="291" d="M104 -138T97 -131T90 -108V738Q90 754 97 761T120 768H241Q252 768 256 762T261 739V734Q261 718 257 712T241 705H164V-76H241Q252 -76 256 -82T261 -105V-109Q261 -125 257 -131T241 -138H120Q104
-138 97 -131Z" />
<glyph unicode="\" glyph-name="backslash" horiz-adv-x="422" d="M353 -76T346 -73T335 -61L38 651Q26 678 26 687Q26 696 30 699T48 703H52Q68 703 76 699T90 679L387 -33Q396 -56 396 -61Q396 -70 390 -73T370 -76H366Q353 -76 346 -73Z" />
<glyph unicode="]" glyph-name="bracketright" horiz-adv-x="291" d="M39 -138T35 -132T30 -109V-105Q30 -89 34 -83T50 -76H127V705H50Q39 705 35 711T30 734V739Q30 755 34 761T50 768H171Q187 768 194 761T201 738V-108Q201 -124 194 -131T171 -138H50Q39 -138
35 -132Z" />
<glyph unicode="^" glyph-name="asciicircum" horiz-adv-x="450" d="M67 320T60 325T53 341Q53 348 56 355L181 664Q186 676 194 680T215 684H235Q249 684 257 680T269 664L394 355Q397 348 397 341Q397 331 390 326T370 320H366Q341 320 331 343L225 604L118
343Q108 320 84 320H80Q67 320 60 325Z" />
<glyph unicode="_" glyph-name="underscore" d="M-20 -138T-20 -118V-110Q-20 -90 0 -90H536Q556 -90 556 -110V-118Q556 -138 536 -138H0Q-20 -138 -20 -118Z" />
<glyph unicode="`" glyph-name="grave" horiz-adv-x="161" d="M118 576T107 580T81 600L27 660Q0 690 0 702Q0 718 48 718Q78 718 90 712T110 692L150 616Q161 594 161 589Q161 576 139 576Q118 576 107 580Z" />
<glyph unicode="a" glyph-name="a" horiz-adv-x="545" d="M143 -6T96 32T49 144Q49 223 96 262T213 313T381 326V373Q381 410 355 433T271 457Q227 457 194 447T139 426T115 415Q105 415 93 435T80 465Q80 478 106 493T177 518T268 529Q361 529 413 488T465 372V148Q465
82 471 54T477 22Q477 10 458 5T423 -1Q409 -1 403 14T393 47T388 69Q320 -6 220 -6Q143 -6 96 32ZM273 67T308 85T381 136V254Q306 253 259 248T175 220T139 149Q139 109 160 88T224 67Q273 67 308 85Z" />
<glyph unicode="b" glyph-name="b" horiz-adv-x="569" d="M234 -6T162 69Q156 30 146 10Q141 -2 119 -2H115Q85 -2 85 20V730Q85 752 125 752H129Q169 752 169 730V478Q201 503 234 516T312 529Q372 529 418 498T489 407T515 262Q515 184 492 123T424 28T321 -6Q234
-6 162 69ZM363 67T395 119T427 269Q427 359 393 407T293 455Q260 455 228 444T169 410V136Q199 103 234 85T304 67Q363 67 395 119Z" />
<glyph unicode="c" glyph-name="c" horiz-adv-x="485" d="M174 -6T113 58T52 264Q52 407 120 468T289 529Q347 529 393 515T439 483Q439 470 428 450T407 429Q405 429 403 430T396 433Q342 457 287 457Q142 457 142 266Q142 160 177 113T297 66Q358 66 410 92L421
96Q431 96 443 77T455 45Q455 33 434 22T376 2T298 -6Q174 -6 113 58Z" />
<glyph unicode="d" glyph-name="d" horiz-adv-x="565" d="M187 -6T143 28T76 123T52 261Q52 346 77 406T149 498T255 529Q299 529 332 516T398 478V730Q398 752 438 752H442Q482 752 482 730V148Q482 82 488 54T494 22Q494 10 475 5T440 -1Q426 -1 420 14T410
47T405 69Q333 -6 246 -6Q187 -6 143 28ZM297 67T332 85T398 136V410Q344 455 275 455Q208 455 174 407T140 269Q140 172 172 120T263 67Q297 67 332 85Z" />
<glyph unicode="e" glyph-name="e" horiz-adv-x="539" d="M175 -6T115 59T55 258Q55 391 114 460T288 529Q390 529 442 463T494 268Q494 259 482 243T461 227H145Q151 144 188 105T299 66Q341 66 371 76T422 97T445 108Q455 108 467 88T480 58Q480 46 455 31T389
5T300 -6Q175 -6 115 59ZM405 299Q405 457 285 457Q156 457 145 299H405Z" />
<glyph unicode="f" glyph-name="f" horiz-adv-x="325" d="M108 -2T108 20V451H68Q58 451 53 458T48 481V493Q48 509 53 516T68 523H108V618Q108 697 147 726T237 756Q310 756 310 726Q310 716 304 698T289 679Q284 679 275 681T246 684Q220 684 206 670T192 610V523H279Q290
523 294 516T299 493V481Q299 465 295 458T279 451H192V20Q192 -2 152 -2H148Q108 -2 108 20Z" />
<glyph unicode="g" glyph-name="g" horiz-adv-x="546" d="M50 -212T50 -81Q50 -39 74 -5T137 45L138 47Q100 78 100 129Q100 190 154 225Q112 246 90 283T68 366Q68 437 120 483T265 529Q297 529 324 523H506Q517 523 521 516T526 493V481Q526 465 522 458T506
451Q490 451 468 453T429 458L428 456Q447 435 454 415T461 366Q461 294 410 248T264 202Q220 202 197 188T174 141Q174 116 190 103T232 84T301 73L330 70Q407 61 449 32T491 -61Q491 -134 431 -173T253 -212Q50 -212 50 -81ZM317 272T349 293T381 365Q381 459
264 459Q148 459 148 365Q148 272 264 272Q317 272 349 293ZM339 -143T375 -125T411 -66Q411 -40 392 -26T344 -5T269 6Q209 12 187 19Q128 -9 128 -65Q128 -107 159 -125T264 -143Q339 -143 375 -125Z" />
<glyph unicode="h" glyph-name="h" horiz-adv-x="565" d="M92 -2T92 20V730Q92 752 132 752H136Q176 752 176 730V460Q206 490 245 509T329 529Q392 529 440 494T488 367V20Q488 -2 448 -2H444Q404 -2 404 20V359Q404 404 378 430T302 456Q265 456 232 436T176
386V20Q176 -2 136 -2H132Q92 -2 92 20Z" />
<glyph unicode="i" glyph-name="i" horiz-adv-x="265" d="M91 -2T91 20V503Q91 525 131 525H135Q175 525 175 503V20Q175 -2 135 -2H131Q91 -2 91 20ZM345 595T345 617V677Q345 699 389 699Q433 699 433 677V617Q433 595 389 595Q345 595 345 617Z" />
<glyph unicode="j" glyph-name="j" horiz-adv-x="276" d="M-17 -212T-17 -182Q-17 -172 -11 -154T4 -135Q9 -135 18 -137T47 -140Q72 -140 86 -124T101 -66V503Q101 525 141 525H145Q185 525 185 503V-74Q185 -151 146 -181T56 -212Q-17 -212 -17 -182ZM355 595T355
617V677Q355 699 399 699Q443 699 443 677V617Q443 595 399 595Q355 595 355 617Z" />
<glyph unicode="k" glyph-name="k" horiz-adv-x="521" d="M484 18T484 12Q484 4 474 1T440 -2H436Q415 -2 402 0T382 11L182 248H178V20Q178 -2 138 -2H134Q94 -2 94 20V730Q94 752 134 752H138Q178 752 178 730V283H182L373 511Q384 525 426 525H430Q447 525
456 522T465 512Q465 503 455 492L269 272L475 28Q484 18 484 12Z" />
<glyph unicode="l" glyph-name="l" horiz-adv-x="297" d="M161 -6T122 24T82 132V730Q82 752 122 752H126Q166 752 166 730V140Q166 98 180 82T220 66Q239 66 248 68T263 71Q272 71 278 53T284 24Q284 -6 211 -6Q161 -6 122 24Z" />
<glyph unicode="m" glyph-name="m" horiz-adv-x="848" d="M679 529T726 494T773 367V20Q773 -2 733 -2H729Q689 -2 689 20V359Q689 404 665 430T593 456Q529 456 470 386Q471 379 471 366V20Q471 -2 431 -2H427Q387 -2 387 20V359Q387 404 363 430T291 456Q255
456 223 436T169 387V20Q169 -2 129 -2H125Q85 -2 85 20V371Q85 437 79 465T73 497Q73 509 92 514T127 520Q141 520 147 506T157 475T162 454Q190 486 229 507T314 529Q359 529 398 511T457 446Q488 482 529 505T616 529Q679 529 726 494Z" />
<glyph unicode="n" glyph-name="n" horiz-adv-x="557" d="M86 -2T86 20V371Q86 437 80 465T74 497Q74 509 93 514T128 520Q142 520 148 506T158 475T163 454Q195 489 236 509T319 529Q395 529 438 486T482 367V20Q482 -2 442 -2H438Q398 -2 398 20V359Q398 405
372 430T296 456Q262 456 229 437T170 386V20Q170 -2 130 -2H126Q86 -2 86 20Z" />
<glyph unicode="o" glyph-name="o" horiz-adv-x="569" d="M174 -6T115 62T55 259Q55 389 115 459T287 529Q397 529 455 460T514 259Q514 129 457 62T287 -6Q174 -6 115 62ZM357 66T392 113T427 261Q427 361 392 409T284 457Q211 457 177 410T143 261Q143 161 177
114T284 66Q357 66 392 113Z" />
<glyph unicode="p" glyph-name="p" horiz-adv-x="573" d="M86 -208T86 -186V371Q86 437 80 465T74 497Q74 509 93 514T128 520Q142 520 148 506T158 475T163 454Q235 529 322 529Q383 529 426 495T493 400T516 261Q516 176 491 116T419 25T313 -6Q269 -6 236 7T170
45V-186Q170 -208 130 -208H126Q86 -208 86 -186ZM360 68T394 116T428 254Q428 351 396 403T305 456Q271 456 236 438T170 387V113Q224 68 294 68Q360 68 394 116Z" />
<glyph unicode="q" glyph-name="q" horiz-adv-x="566" d="M398 -208T398 -186V45Q366 20 333 7T255 -6Q195 -6 149 25T78 116T52 260Q52 338 75 399T143 494T246 529Q333 529 405 454Q413 494 421 513Q426 525 448 525H452Q482 525 482 503V-186Q482 -208 442
-208H438Q398 -208 398 -186ZM344 68T398 113V387Q368 420 333 438T263 456Q204 456 172 404T140 254Q140 164 174 116T274 68Q344 68 398 113Z" />
<glyph unicode="r" glyph-name="r" horiz-adv-x="366" d="M90 -2T90 20V371Q90 437 84 465T78 497Q78 509 97 514T132 520Q146 520 152 506T162 475T167 454Q220 529 283 529Q312 529 326 520T341 490Q341 473 335 455T321 436Q316 436 302 441T266 447Q240 447
216 430T174 386V20Q174 -2 134 -2H130Q90 -2 90 20Z" />
<glyph unicode="s" glyph-name="s" horiz-adv-x="413" d="M155 -9T119 1T61 27T39 54Q39 64 51 84T74 104Q76 104 93 93T135 73T192 64Q240 64 265 83T290 138Q290 174 266 193T190 229Q147 243 118 259T70 306T51 385Q51 427 72 460T131 511T217 530Q268 530
308 517T349 487Q349 474 338 454T317 433Q314 434 291 446T226 459Q187 459 162 441T137 392Q137 363 153 347T215 316Q293 290 334 253T375 147Q375 103 352 68T288 12T198 -9Q155 -9 119 1Z" />
<glyph unicode="t" glyph-name="t" horiz-adv-x="342" d="M186 -6T147 24T107 132V451H57Q47 451 42 458T37 481V493Q37 509 42 516T57 523H107L119 628Q122 650 151 650H161Q191 650 191 628V523H275Q286 523 290 516T295 493V481Q295 465 291 458T275 451H191V140Q191
98 205 82T245 66Q264 66 273 68T288 71Q297 71 303 53T309 24Q309 -6 236 -6Q186 -6 147 24Z" />
<glyph unicode="u" glyph-name="u" horiz-adv-x="557" d="M162 -6T119 37T75 156V503Q75 525 115 525H119Q159 525 159 503V164Q159 118 185 93T261 67Q295 67 328 86T387 137V503Q387 525 427 525H431Q471 525 471 503V148Q471 82 477 54T483 22Q483 10 464 5T429
-1Q415 -1 409 14T399 47T394 69Q362 34 321 14T238 -6Q162 -6 119 37Z" />
<glyph unicode="v" glyph-name="v" horiz-adv-x="485" d="M190 -2T185 14L24 495Q21 504 21 508Q21 525 64 525H69Q104 525 109 509L211 190Q228 135 244 65H248Q249 71 259 114T286 206L383 509Q388 525 424 525H427Q464 525 464 508Q464 503 461 494L300 14Q295
-2 260 -2H225Q190 -2 185 14Z" />
<glyph unicode="w" glyph-name="w" horiz-adv-x="747" d="M172 -2T168 14L36 488Q31 503 31 508Q31 525 77 525Q113 525 117 509L201 189Q204 180 208 159T214 126L224 74H228Q244 163 251 190L334 508Q338 525 373 525H380Q415 525 419 508L503 190Q514 146 519
114T527 72H529L536 114Q547 171 551 188L635 509Q639 525 676 525Q716 525 716 508Q716 503 713 494L579 14Q575 -2 539 -2H509Q474 -2 470 14L390 331Q387 343 376 410H374Q363 347 360 332L278 14Q274 -2 238 -2H208Q172 -2 168 14Z" />
<glyph unicode="x" glyph-name="x" horiz-adv-x="485" d="M40 -2T30 2T20 15Q20 22 28 33L190 268L40 490Q32 501 32 508Q32 525 78 525H87Q104 525 114 522T130 510L225 367Q232 357 246 332Q260 357 267 367L363 511Q372 525 408 525H412Q434 525 444 521T454
508Q454 501 446 490L295 270L457 33Q465 22 465 15Q465 -2 419 -2H410Q393 -2 383 1T367 13L261 172Q254 183 240 207Q226 183 219 172L111 12Q101 -2 66 -2H63Q40 -2 30 2Z" />
<glyph unicode="y" glyph-name="y" horiz-adv-x="481" d="M462 525T462 508Q462 503 459 494L202 -187Q194 -208 155 -208H140Q107 -208 107 -192Q107 -188 112 -175L196 29L21 495Q18 504 18 508Q18 525 61 525H69Q104 525 109 509L211 238Q227 194 243 137H245Q247
144 249 150T253 163L278 238L378 509Q383 525 419 525H422Q462 525 462 508Z" />
<glyph unicode="z" glyph-name="z" horiz-adv-x="489" d="M53 0T45 18T37 51Q37 58 40 62L333 451H77Q67 451 62 458T57 481V493Q57 509 62 516T77 523H428Q435 523 441 505T448 471Q448 465 446 461L154 72H429Q440 72 444 65T449 42V30Q449 14 445 7T429 0H59Q53
0 45 18Z" />
<glyph unicode="{" glyph-name="braceleft" horiz-adv-x="274" d="M146 -138T121 -112T96 -22V145Q96 200 86 230T45 274Q32 280 26 287T20 308V322Q20 335 26 342T45 356Q76 370 86 399T96 485V652Q96 715 121 741T174 768H224Q235 768 239 762T244 739V735Q244
719 240 713T224 706H202Q182 706 175 692T168 645V469Q168 406 143 370T90 314Q102 308 120 291T153 240T168 161V-14Q168 -46 175 -61T202 -76H224Q235 -76 239 -82T244 -105V-109Q244 -125 240 -131T224 -138H174Q146 -138 121 -112Z" />
<glyph unicode="|" glyph-name="bar" horiz-adv-x="250" d="M96 -140T96 -118V748Q96 770 120 770H130Q154 770 154 748V-118Q154 -140 130 -140H120Q96 -140 96 -118Z" />
<glyph unicode="}" glyph-name="braceright" horiz-adv-x="274" d="M39 -138T35 -132T30 -109V-105Q30 -89 34 -83T50 -76H72Q92 -76 99 -61T106 -14V161Q106 207 121 240T154 290T184 314Q157 333 132 369T106 469V645Q106 677 99 691T72 706H50Q39 706 35 712T30
735V739Q30 755 34 761T50 768H100Q128 768 153 742T178 652V485Q178 429 188 400T229 356Q242 350 248 343T254 322V308Q254 295 248 288T229 274Q198 260 188 230T178 145V-22Q178 -86 153 -112T100 -138H50Q39 -138 35 -132Z" />
<glyph unicode="~" glyph-name="asciitilde" horiz-adv-x="560" d="M97 214T89 219T80 230Q80 239 86 254Q113 312 178 312Q205 312 231 307T294 290Q353 273 380 273Q405 273 417 281T439 302T453 315Q459 315 469 310T480 297Q480 295 475 282Q460 246 436 231T372
215Q350 215 326 220T268 237Q205 256 178 256Q155 256 143 248T120 227T105 214Q97 214 89 219Z" />
<glyph unicode="&#xa0;" glyph-name="uni00A0" horiz-adv-x="240" />
<glyph unicode="&#xa1;" glyph-name="exclamdown" horiz-adv-x="294" d="M98 415T98 437V503Q98 525 138 525H155Q195 525 195 503V437Q195 415 155 415H138Q98 415 98 437ZM84 -179T84 -157Q84 -137 93 27T111 299Q113 321 142 321H153Q183 321 183 299V-157Q183
-179 143 -179H123Q84 -179 84 -157Z" />
<glyph unicode="&#xa2;" glyph-name="cent" horiz-adv-x="470" d="M443 29T406 14T314 -5V-53Q314 -71 288 -71H283Q257 -71 257 -53V-5Q148 2 94 66T40 264Q40 400 101 461T257 528V571Q257 589 283 589H288Q314 589 314 571V527Q361 523 394 511T427 483Q427
470 416 450T395 429Q393 429 391 430T384 433Q350 448 314 454V68Q355 72 398 92L409 96Q419 96 431 77T443 45Q443 29 406 14ZM130 169T159 122T257 67V456Q130 445 130 266Q130 169 159 122Z" />
<glyph unicode="&#xa3;" glyph-name="sterling" horiz-adv-x="530" d="M65 0T60 7T55 30V46Q55 58 62 64T87 81Q112 94 126 110T141 159V339H86Q76 339 71 346T66 369V381Q66 397 71 404T86 411H141V498Q141 706 346 706Q385 706 416 699T447 674Q447 665 441
645T425 625Q420 625 402 629T362 634Q290 634 258 603T225 503V411H372Q383 411 387 404T392 381V369Q392 353 388 346T372 339H225V249Q225 159 209 123T168 72H448Q459 72 463 65T468 42V30Q468 14 464 7T448 0H75Q65 0 60 7Z" />
<glyph unicode="&#xa4;" glyph-name="currency" horiz-adv-x="550" d="M117 143T108 152L106 154Q98 162 98 171Q98 182 109 193L133 217Q99 262 99 322Q99 381 133 427L109 450Q96 463 96 474Q96 480 102 486L109 493Q117 501 125 501Q135 501 147 489L171 465Q219
500 276 500Q333 500 380 466L404 490Q414 500 424 500Q434 500 443 491L445 489Q454 480 454 472Q454 461 443 450L419 426Q454 380 454 322Q454 263 419 217L443 193Q454 182 454 172Q454 168 451 163T444 153L443 152Q434 143 425 143Q415 143 404 154L380 178Q333
145 276 145Q218 145 172 178L147 153Q137 143 126 143Q117 143 108 152ZM324 206T358 240T393 322Q393 370 359 404T276 439Q228 439 194 405T160 322Q160 274 194 240T276 206Q324 206 358 240Z" />
<glyph unicode="&#xa5;" glyph-name="yen" horiz-adv-x="600" d="M562 678T554 667L389 422H513Q524 422 528 415T533 392V385Q533 369 529 362T513 355H344V259H513Q524 259 528 252T533 229V222Q533 206 529 199T513 192H344V20Q344 -2 304 -2H296Q256 -2 256
20V192H89Q79 192 74 199T69 222V229Q69 245 74 252T89 259H256V355H89Q79 355 74 362T69 385V392Q69 408 74 415T89 422H213L47 667Q39 678 39 685Q39 702 85 702H96Q113 702 123 699T139 687L303 441L471 688Q480 702 516 702H523Q544 701 553 697T562 685Q562
678 554 667Z" />
<glyph unicode="&#xa6;" glyph-name="brokenbar" horiz-adv-x="250" d="M96 403T96 425V748Q96 770 120 770H130Q154 770 154 748V425Q154 403 130 403H120Q96 403 96 425ZM96 -140T96 -118V204Q96 226 120 226H130Q154 226 154 204V-118Q154 -140 130 -140H120Q96
-140 96 -118Z" />
<glyph unicode="&#xa7;" glyph-name="section" horiz-adv-x="429" d="M154 -6T114 7T74 36Q74 49 85 69T106 90Q109 89 132 78T196 66Q237 66 258 83T279 126Q279 155 259 168T193 197L166 206Q112 226 81 258T50 359Q50 395 64 424T103 474Q65 509 65 564Q65
635 112 670T225 706Q276 706 316 693T356 664Q356 651 345 631T324 610Q321 611 298 622T233 634Q192 634 172 618T151 574Q151 545 172 531T220 509T256 497Q313 478 346 446T379 343Q379 270 324 227Q364 194 364 138Q364 66 318 30T205 -6Q154 -6 114 7ZM294
279T294 343Q294 383 268 401T191 435Q167 428 151 410T135 359Q135 330 148 313T183 286T238 266Q294 279 294 343Z" />
<glyph unicode="&#xa8;" glyph-name="dieresis" horiz-adv-x="238" d="M21 597T11 602T0 619V675Q0 686 10 691T44 697Q67 697 77 692T88 675V619Q88 608 78 603T44 597Q21 597 11 602ZM171 597T161 602T150 619V675Q150 686 160 691T194 697Q217 697 227 692T238
675V619Q238 608 228 603T194 597Q171 597 161 602Z" />
<glyph unicode="&#xa9;" glyph-name="copyright" horiz-adv-x="739" d="M271 -5T189 43T58 173T10 354Q10 452 58 533T188 662T369 710Q467 710 549 663T680 534T729 354Q729 256 681 174T550 43T369 -5Q271 -5 189 43ZM454 43T525 85T639 198T681 354Q681 438
639 509T526 621T369 662Q285 662 214 621T100 509T58 354Q58 270 100 199T213 85T369 43Q454 43 525 85ZM287 137T240 189T193 349Q193 562 387 562Q430 562 465 550T501 525Q501 517 494 504T480 490Q479 490 455 503T388 517Q316 517 282 477T247 349Q247 263
281 223T385 182Q415 182 436 189T471 204T488 212Q494 212 501 199T509 180Q509 172 492 162T447 144T385 137Q287 137 240 189Z" />
<glyph unicode="&#xaa;" glyph-name="ordfeminine" horiz-adv-x="319" d="M91 441T68 460T45 515Q45 554 67 573T123 598T206 605V627Q206 644 194 653T155 662Q121 662 101 654T78 644Q73 644 67 656T60 674Q60 684 89 695T155 706Q200 706 227 685T255 628V517Q255
485 258 470T261 453Q261 447 250 445T230 442Q214 442 209 475Q177 441 127 441Q91 441 68 460ZM170 489T206 519V561Q153 561 123 554T93 520Q93 489 134 489Q170 489 206 519Z" />
<glyph unicode="&#xab;" glyph-name="guillemotleft" horiz-adv-x="470" d="M192 61T181 74L51 230Q38 246 38 258Q38 270 51 286L181 442Q192 454 203 454Q213 454 225 444T238 422Q238 413 230 402L119 258L230 113Q238 102 238 94Q238 85 227 73T203 61Q192
61 181 74ZM364 61T353 74L223 230Q210 246 210 258Q210 270 223 286L353 442Q364 454 375 454Q385 454 397 444T410 422Q410 413 402 402L291 258L402 113Q410 102 410 94Q410 85 399 73T375 61Q364 61 353 74Z" />
<glyph unicode="&#xac;" glyph-name="logicalnot" horiz-adv-x="560" d="M445 77T445 99V265H60Q50 265 45 272T40 295V308Q40 324 45 331T60 338H490Q506 338 513 331T520 308V99Q520 77 490 77H475Q445 77 445 99Z" />
<glyph unicode="&#xad;" glyph-name="uni00AD" horiz-adv-x="320" d="M55 230T50 237T45 260V270Q45 286 50 293T65 300H255Q266 300 270 293T275 270V260Q275 244 271 237T255 230H65Q55 230 50 237Z" />
<glyph unicode="&#xae;" glyph-name="registered" horiz-adv-x="739" d="M271 -5T189 43T58 173T10 354Q10 452 58 533T188 662T369 710Q467 710 549 663T680 534T729 354Q729 256 681 174T550 43T369 -5Q271 -5 189 43ZM454 43T525 85T639 198T681 354Q681 438
639 509T526 621T369 662Q285 662 214 621T100 509T58 354Q58 270 100 199T213 85T369 43Q454 43 525 85ZM249 145T249 158V541Q249 551 253 555T267 559H366Q437 559 472 534T508 455Q508 418 490 393T440 355V353Q457 347 468 330T493 279L539 163Q541 159 541
154Q541 145 516 145H510Q501 145 495 147T487 154L442 270Q429 304 410 316T354 328H301V158Q301 145 277 145H273Q249 145 249 158ZM379 373Q410 373 432 394T454 445Q454 480 433 497T375 514H301V373H379Z" />
<glyph unicode="&#xaf;" glyph-name="overscore" horiz-adv-x="253" d="M10 612T5 619T0 642V652Q0 668 5 675T20 682H233Q244 682 248 675T253 652V642Q253 626 249 619T233 612H20Q10 612 5 619Z" />
<glyph unicode="&#xb0;" glyph-name="degree" horiz-adv-x="345" d="M136 441T106 458T58 506T40 573Q40 609 58 639T106 688T172 706Q208 706 238 688T287 640T305 573Q305 537 287 507T239 459T172 441Q136 441 106 458ZM207 486T231 511T256 573Q256 609 231
635T172 661Q138 661 114 635T89 573Q89 537 113 512T172 486Q207 486 231 511Z" />
<glyph unicode="&#xb1;" glyph-name="plusminus" horiz-adv-x="560" d="M261 134T254 138T247 154V327H70Q60 327 55 334T50 357V364Q50 380 55 387T70 394H247V573Q247 584 254 588T277 593H284Q300 593 307 589T314 573V394H490Q501 394 505 387T510 364V357Q510
341 506 334T490 327H314V154Q314 144 307 139T284 134H277Q261 134 254 138ZM58 1T54 7T50 28V41Q50 55 54 61T68 68H492Q502 68 506 62T510 41V28Q510 14 506 8T492 1H68Q58 1 54 7Z" />
<glyph unicode="&#xb2;" glyph-name="uni00B2" horiz-adv-x="310" d="M30 350T27 356T24 371Q24 377 25 381T30 391L177 575Q203 609 210 624T217 660Q217 688 197 704T144 720Q119 720 102 714T72 701T55 693Q51 693 44 703T37 720Q37 737 74 749T142 762Q200
762 233 736T267 663Q267 630 258 611T235 574T214 548L90 391H259Q270 391 270 374V368Q270 358 268 354T259 350H35Q30 350 27 356Z" />
<glyph unicode="&#xb3;" glyph-name="uni00B3" horiz-adv-x="310" d="M95 344T60 355T25 378Q25 386 33 396T46 407Q49 407 76 397T139 387Q172 387 197 406T223 468Q223 511 201 528T135 545H116Q104 545 104 563V569Q104 587 116 587H133Q173 587 192 612T211
664Q211 685 195 702T141 720Q104 720 82 711T57 701Q52 701 45 713T37 731Q37 743 74 752T142 762Q196 762 228 736T261 659Q261 630 244 609T200 578V575Q230 568 252 539T274 467Q274 405 235 375T143 344Q95 344 60 355Z" />
<glyph unicode="&#xb4;" glyph-name="acute" horiz-adv-x="161" d="M0 576T0 589Q0 594 11 616L51 692Q58 706 70 712T113 718Q161 718 161 702Q161 690 134 660L80 600Q66 585 55 581T22 576Q0 576 0 589Z" />
<glyph unicode="&#xb5;" glyph-name="uni00B5" horiz-adv-x="566" d="M481 82T487 54T493 22Q493 10 474 5T439 -1Q425 -1 419 14T409 47T404 69Q372 34 331 14T248 -6Q197 -6 154 18Q163 -32 166 -76T169 -186Q169 -208 129 -208H125Q85 -208 85 -186V503Q85
525 125 525H129Q169 525 169 503V164Q169 118 195 93T271 67Q305 67 338 86T397 137V503Q397 525 437 525H441Q481 525 481 503V148Q481 82 487 54Z" />
<glyph unicode="&#xb6;" glyph-name="paragraph" horiz-adv-x="515" d="M243 -173T243 -151V247Q187 253 141 285T68 366T41 473Q41 534 71 586T154 669T268 700H481Q492 700 496 695T501 676V662Q501 649 497 644T481 638H445V-151Q445 -173 421 -173H407Q383
-173 383 -151V638H305V-151Q305 -173 281 -173H267Q243 -173 243 -151Z" />
<glyph unicode="&#xb7;" glyph-name="middot" horiz-adv-x="267" d="M111 309T97 323T82 360Q82 382 96 397T133 412Q155 412 170 397T185 360Q185 338 170 324T133 309Q111 309 97 323Z" />
<glyph unicode="&#xb8;" glyph-name="cedilla" horiz-adv-x="230" d="M184 -56T207 -74T230 -125Q230 -210 115 -210Q76 -210 38 -198T0 -167Q0 -141 19 -141Q23 -141 30 -143T42 -147Q82 -161 112 -161Q132 -161 149 -154T166 -126Q166 -109 155 -103T123 -93Q107
-90 100 -87T93 -76Q93 -67 112 0H155L139 -54Q184 -56 207 -74Z" />
<glyph unicode="&#xb9;" glyph-name="uni00B9" horiz-adv-x="310" d="M159 348T153 351T146 362V710L72 694Q66 694 63 703T60 724Q60 732 70 735L176 763Q183 763 188 760T194 751V362Q194 355 188 352T172 348H167Q159 348 153 351Z" />
<glyph unicode="&#xba;" glyph-name="ordmasculine" horiz-adv-x="337" d="M114 441T85 474T55 572Q55 637 85 671T170 706Q224 706 253 672T282 572Q282 508 254 475T170 441Q114 441 85 474ZM200 485T215 507T231 573Q231 618 216 640T168 662Q136 662 121 641T106
573Q106 485 168 485Q200 485 215 507Z" />
<glyph unicode="&#xbb;" glyph-name="guillemotright" horiz-adv-x="470" d="M84 61T72 73T60 94Q60 102 68 113L179 258L68 402Q60 413 60 422Q60 434 72 444T95 454Q106 454 117 442L247 286Q260 270 260 258Q260 246 247 230L117 74Q106 61 95 61Q84 61 72
73ZM256 61T244 73T232 94Q232 102 240 113L351 258L240 402Q232 413 232 422Q232 434 244 444T267 454Q278 454 289 442L419 286Q432 270 432 258Q432 246 419 230L289 74Q278 61 267 61Q256 61 244 73Z" />
<glyph unicode="&#xbc;" glyph-name="onequarter" horiz-adv-x="750" d="M395 288T389 291T382 302V650L308 634Q302 634 299 643T296 664Q296 672 306 675L412 703Q419 703 424 700T430 691V302Q430 295 424 292T408 288H403Q395 288 389 291ZM612 -2T612 11V96H439Q433
96 428 105T422 124Q422 129 425 133L614 401Q620 409 633 409H643Q660 409 660 396V137H699Q710 137 710 120V113Q710 96 699 96H660V11Q660 -2 643 -2H629Q612 -2 612 11ZM612 137V291Q612 305 615 329L613 330L478 137H612ZM125 -2T125 5Q125 9 130 16L536 686Q541
695 547 699T564 703H577Q593 703 593 696Q593 694 589 686L182 15Q172 -2 152 -2H139Q125 -2 125 5Z" />
<glyph unicode="&#xbd;" glyph-name="onehalf" horiz-adv-x="750" d="M395 288T389 291T382 302V650L308 634Q302 634 299 643T296 664Q296 672 306 675L412 703Q419 703 424 700T430 691V302Q430 295 424 292T408 288H403Q395 288 389 291ZM447 0T444 6T441 21Q441
27 442 31T447 41L594 225Q620 259 627 274T634 310Q634 338 614 354T561 370Q536 370 519 364T489 351T472 343Q468 343 461 353T454 370Q454 387 491 399T559 412Q617 412 650 386T684 313Q684 280 675 261T652 224T631 198L507 41H676Q687 41 687 24V18Q687
8 685 4T676 0H452Q447 0 444 6ZM100 -2T100 5Q100 9 105 16L511 686Q516 695 522 699T539 703H552Q568 703 568 696Q568 694 564 686L157 15Q147 -2 127 -2H114Q100 -2 100 5Z" />
<glyph unicode="&#xbe;" glyph-name="threequarters" horiz-adv-x="750" d="M341 284T306 295T271 318Q271 326 279 336T292 347Q295 347 322 337T385 327Q418 327 443 346T469 408Q469 451 447 468T381 485H362Q350 485 350 503V509Q350 527 362 527H379Q419
527 438 552T457 604Q457 625 441 642T387 660Q350 660 328 651T303 641Q298 641 291 653T283 671Q283 683 320 692T388 702Q442 702 474 676T507 599Q507 570 490 549T446 518V515Q476 508 498 479T520 407Q520 345 481 315T389 284Q341 284 306 295ZM612 -2T612
11V96H439Q433 96 428 105T422 124Q422 129 425 133L614 401Q620 409 633 409H643Q660 409 660 396V137H699Q710 137 710 120V113Q710 96 699 96H660V11Q660 -2 643 -2H629Q612 -2 612 11ZM612 137V291Q612 305 615 329L613 330L478 137H612ZM153 -2T153 5Q153
9 158 16L564 686Q569 695 575 699T592 703H605Q621 703 621 696Q621 694 617 686L210 15Q200 -2 180 -2H167Q153 -2 153 5Z" />
<glyph unicode="&#xbf;" glyph-name="questiondown" horiz-adv-x="425" d="M318 525T318 503V437Q318 415 278 415H261Q221 415 221 437V503Q221 525 261 525H278Q318 525 318 503ZM305 321T305 298Q305 264 283 222T219 139Q169 89 147 59T124 -5Q124 -109 250
-109Q278 -109 301 -102T350 -84Q370 -75 374 -75Q381 -75 393 -95T406 -126Q406 -150 350 -166T234 -183Q170 -183 124 -161T53 -100T29 -15Q29 32 53 70T124 153Q172 200 196 231T227 301Q229 311 236 316T260 321H275Q305 321 305 298Z" />
<glyph unicode="&#xc0;" glyph-name="Agrave" horiz-adv-x="613" d="M12 -2T12 15Q12 20 15 29L252 686Q258 702 292 702H321Q357 702 361 686L598 28Q601 21 601 15Q601 -2 558 -2H550Q515 -2 510 14L451 178H157L100 14Q95 -2 60 -2H55Q12 -2 12 15ZM424 254L319
552Q314 568 307 610H305Q297 570 290 552L185 254H424ZM342 752T328 756T293 773L239 806Q214 822 207 829T199 846Q199 855 213 859T252 864Q284 864 299 859T328 841L382 784Q393 773 393 765Q393 759 386 756T367 752Q342 752 328 756Z" />
<glyph unicode="&#xc1;" glyph-name="Aacute" horiz-adv-x="613" d="M12 -2T12 15Q12 20 15 29L252 686Q258 702 292 702H321Q357 702 361 686L598 28Q601 21 601 15Q601 -2 558 -2H550Q515 -2 510 14L451 178H157L100 14Q95 -2 60 -2H55Q12 -2 12 15ZM424 254L319
552Q314 568 307 610H305Q297 570 290 552L185 254H424ZM235 752T228 755T221 765Q221 773 232 784L286 841Q299 854 314 859T362 864Q386 864 400 860T415 846Q415 837 408 830T375 806L321 773Q300 760 286 756T247 752Q235 752 228 755Z" />
<glyph unicode="&#xc2;" glyph-name="Acircumflex" horiz-adv-x="613" d="M12 -2T12 15Q12 20 15 29L252 686Q258 702 292 702H321Q357 702 361 686L598 28Q601 21 601 15Q601 -2 558 -2H550Q515 -2 510 14L451 178H157L100 14Q95 -2 60 -2H55Q12 -2 12 15ZM424
254L319 552Q314 568 307 610H305Q297 570 290 552L185 254H424ZM177 742T177 753Q177 758 179 762T191 777L243 832Q255 845 265 849T297 854H317Q340 854 348 851T371 832L421 779Q432 768 434 763T437 753Q437 742 415 742Q393 742 374 755L307 799L243 757Q221
742 199 742Q177 742 177 753Z" />
<glyph unicode="&#xc3;" glyph-name="Atilde" horiz-adv-x="613" d="M12 -2T12 15Q12 20 15 29L252 686Q258 702 292 702H321Q357 702 361 686L598 28Q601 21 601 15Q601 -2 558 -2H550Q515 -2 510 14L451 178H157L100 14Q95 -2 60 -2H55Q12 -2 12 15ZM424 254L319
552Q314 568 307 610H305Q297 570 290 552L185 254H424ZM147 756T136 762T125 777Q125 783 128 790Q141 824 167 842T226 861Q247 861 268 855T317 837Q341 827 356 823T385 818Q402 818 413 825T438 847Q450 861 458 861Q467 861 477 854T488 838Q488 833 484
825Q449 756 387 756Q365 756 346 761T292 780Q267 790 253 794T225 799Q208 799 198 792T175 771Q164 756 156 756Q147 756 136 762Z" />
<glyph unicode="&#xc4;" glyph-name="Adieresis" horiz-adv-x="613" d="M12 -2T12 15Q12 20 15 29L252 686Q258 702 292 702H321Q357 702 361 686L598 28Q601 21 601 15Q601 -2 558 -2H550Q515 -2 510 14L451 178H157L100 14Q95 -2 60 -2H55Q12 -2 12 15ZM424
254L319 552Q314 568 307 610H305Q297 570 290 552L185 254H424ZM204 758T194 763T183 780V836Q183 847 193 852T227 858Q250 858 260 853T271 836V780Q271 769 261 764T227 758Q204 758 194 763ZM364 758T354 763T343 780V836Q343 847 353 852T387 858Q410 858
420 853T431 836V780Q431 769 421 764T387 758Q364 758 354 763Z" />
<glyph unicode="&#xc5;" glyph-name="Aring" horiz-adv-x="613" d="M12 -2T12 15Q12 20 15 29L252 686Q258 702 292 702H321Q357 702 361 686L598 28Q601 21 601 15Q601 -2 558 -2H550Q515 -2 510 14L451 178H157L100 14Q95 -2 60 -2H55Q12 -2 12 15ZM424 254L319
552Q314 568 307 610H305Q297 570 290 552L185 254H424ZM270 747T246 771T222 831Q222 867 246 891T306 916Q342 916 366 892T391 831Q391 795 367 771T306 747Q270 747 246 771ZM323 792T334 803T346 831Q346 848 335 859T306 871Q289 871 278 860T267 831Q267
815 278 804T306 792Q323 792 334 803Z" />
<glyph unicode="&#xc6;" glyph-name="AE" horiz-adv-x="915" d="M8 -2T0 2T-9 15Q-9 23 -5 31L316 673Q323 687 333 693T359 700H804Q815 700 819 693T824 670V654Q824 638 820 631T804 624H442L492 396H774Q785 396 789 389T794 366V350Q794 334 790 327T774
320H508L561 76H805Q816 76 820 69T825 46V30Q825 14 821 7T805 0H518Q488 0 482 29L450 178H155L75 14Q68 -2 35 -2H30Q8 -2 0 2ZM433 253L369 552L365 610H363L342 552L194 253H433Z" />
<glyph unicode="&#xc7;" glyph-name="Ccedilla" horiz-adv-x="619" d="M560 120T573 98T586 66Q586 51 554 33Q524 16 478 5T379 -6H375L361 -54Q406 -56 429 -74T452 -125Q452 -210 337 -210Q298 -210 260 -198T222 -167Q222 -141 241 -141Q245 -141 252 -143T264
-147Q304 -161 334 -161Q354 -161 371 -154T388 -126Q388 -109 377 -103T345 -93Q329 -90 322 -87T315 -76Q315 -68 333 -4Q192 7 125 93T57 350Q57 706 381 706Q430 706 475 696T548 670Q572 656 572 644Q572 630 560 608T538 586Q535 586 513 598T458 620T383
630Q262 630 205 563T148 349Q148 205 204 138T379 70Q428 70 463 81T532 111Q546 120 551 120Q560 120 573 98Z" />
<glyph unicode="&#xc8;" glyph-name="Egrave" horiz-adv-x="546" d="M112 0T105 7T98 30V670Q98 686 105 693T128 700H477Q488 700 492 693T497 670V654Q497 638 493 631T477 624H186V396H447Q458 396 462 389T467 366V350Q467 334 463 327T447 320H186V76H478Q489
76 493 69T498 46V30Q498 14 494 7T478 0H128Q112 0 105 7ZM332 752T318 756T283 773L229 806Q204 822 197 829T189 846Q189 855 203 859T242 864Q274 864 289 859T318 841L372 784Q383 773 383 765Q383 759 376 756T357 752Q332 752 318 756Z" />
<glyph unicode="&#xc9;" glyph-name="Eacute" horiz-adv-x="546" d="M112 0T105 7T98 30V670Q98 686 105 693T128 700H477Q488 700 492 693T497 670V654Q497 638 493 631T477 624H186V396H447Q458 396 462 389T467 366V350Q467 334 463 327T447 320H186V76H478Q489
76 493 69T498 46V30Q498 14 494 7T478 0H128Q112 0 105 7ZM225 752T218 755T211 765Q211 773 222 784L276 841Q289 854 304 859T352 864Q376 864 390 860T405 846Q405 837 398 830T365 806L311 773Q290 760 276 756T237 752Q225 752 218 755Z" />
<glyph unicode="&#xca;" glyph-name="Ecircumflex" horiz-adv-x="546" d="M112 0T105 7T98 30V670Q98 686 105 693T128 700H477Q488 700 492 693T497 670V654Q497 638 493 631T477 624H186V396H447Q458 396 462 389T467 366V350Q467 334 463 327T447 320H186V76H478Q489
76 493 69T498 46V30Q498 14 494 7T478 0H128Q112 0 105 7ZM167 742T167 753Q167 758 169 762T181 777L233 832Q245 845 255 849T287 854H307Q330 854 338 851T361 832L411 779Q422 768 424 763T427 753Q427 742 405 742Q383 742 364 755L297 799L233 757Q211 742
189 742Q167 742 167 753Z" />
<glyph unicode="&#xcb;" glyph-name="Edieresis" horiz-adv-x="546" d="M112 0T105 7T98 30V670Q98 686 105 693T128 700H477Q488 700 492 693T497 670V654Q497 638 493 631T477 624H186V396H447Q458 396 462 389T467 366V350Q467 334 463 327T447 320H186V76H478Q489
76 493 69T498 46V30Q498 14 494 7T478 0H128Q112 0 105 7ZM194 758T184 763T173 780V836Q173 847 183 852T217 858Q240 858 250 853T261 836V780Q261 769 251 764T217 758Q194 758 184 763ZM354 758T344 763T333 780V836Q333 847 343 852T377 858Q400 858 410
853T421 836V780Q421 769 411 764T377 758Q354 758 344 763Z" />
<glyph unicode="&#xcc;" glyph-name="Igrave" horiz-adv-x="283" d="M97 -2T97 20V680Q97 702 137 702H145Q185 702 185 680V20Q185 -2 145 -2H137Q97 -2 97 20ZM176 752T162 756T127 773L73 806Q48 822 41 829T33 846Q33 855 47 859T86 864Q118 864 133 859T162
841L216 784Q227 773 227 765Q227 759 220 756T201 752Q176 752 162 756Z" />
<glyph unicode="&#xcd;" glyph-name="Iacute" horiz-adv-x="283" d="M97 -2T97 20V680Q97 702 137 702H145Q185 702 185 680V20Q185 -2 145 -2H137Q97 -2 97 20ZM69 752T62 755T55 765Q55 773 66 784L120 841Q133 854 148 859T196 864Q220 864 234 860T249 846Q249
837 242 830T209 806L155 773Q134 760 120 756T81 752Q69 752 62 755Z" />
<glyph unicode="&#xce;" glyph-name="Icircumflex" horiz-adv-x="283" d="M97 -2T97 20V680Q97 702 137 702H145Q185 702 185 680V20Q185 -2 145 -2H137Q97 -2 97 20ZM11 742T11 753Q11 758 13 762T25 777L77 832Q89 845 99 849T131 854H151Q174 854 182 851T205
832L255 779Q266 768 268 763T271 753Q271 742 249 742Q227 742 208 755L141 799L77 757Q55 742 33 742Q11 742 11 753Z" />
<glyph unicode="&#xcf;" glyph-name="Idieresis" horiz-adv-x="283" d="M97 -2T97 20V680Q97 702 137 702H145Q185 702 185 680V20Q185 -2 145 -2H137Q97 -2 97 20ZM38 758T28 763T17 780V836Q17 847 27 852T61 858Q84 858 94 853T105 836V780Q105 769 95 764T61
758Q38 758 28 763ZM198 758T188 763T177 780V836Q177 847 187 852T221 858Q244 858 254 853T265 836V780Q265 769 255 764T221 758Q198 758 188 763Z" />
<glyph unicode="&#xd0;" glyph-name="Eth" horiz-adv-x="695" d="M469 700T553 617T638 350Q638 166 554 83T329 0H127Q111 0 104 7T97 30V320H20Q10 320 5 327T0 350V366Q0 382 5 389T20 396H97V670Q97 686 104 693T127 700H329Q469 700 553 617ZM423 76T485
142T547 350Q547 491 485 557T322 624H185V396H323Q334 396 338 389T343 366V350Q343 334 339 327T323 320H185V76H322Q423 76 485 142Z" />
<glyph unicode="&#xd1;" glyph-name="Ntilde" horiz-adv-x="719" d="M90 -2T90 20V680Q90 702 130 702H151Q167 702 176 698T193 683L507 209Q524 184 540 149L544 150Q542 173 542 218V680Q542 702 582 702H589Q629 702 629 680V20Q629 -2 589 -2H569Q543 -2
534 12L212 498Q195 523 179 558L175 557Q177 534 177 489V20Q177 -2 137 -2H130Q90 -2 90 20ZM200 756T189 762T178 777Q178 783 181 790Q194 824 220 842T279 861Q300 861 321 855T370 837Q394 827 409 823T438 818Q455 818 466 825T491 847Q503 861 511 861Q520
861 530 854T541 838Q541 833 537 825Q502 756 440 756Q418 756 399 761T345 780Q320 790 306 794T278 799Q261 799 251 792T228 771Q217 756 209 756Q200 756 189 762Z" />
<glyph unicode="&#xd2;" glyph-name="Ograve" horiz-adv-x="731" d="M215 -6T136 85T57 352Q57 527 135 616T365 706Q516 706 595 617T674 352Q674 177 595 86T365 -6Q215 -6 136 85ZM471 70T527 142T583 352Q583 489 527 559T365 630Q259 630 204 560T148 352Q148
214 203 142T365 70Q471 70 527 142ZM401 752T387 756T352 773L298 806Q273 822 266 829T258 846Q258 855 272 859T311 864Q343 864 358 859T387 841L441 784Q452 773 452 765Q452 759 445 756T426 752Q401 752 387 756Z" />
<glyph unicode="&#xd3;" glyph-name="Oacute" horiz-adv-x="731" d="M215 -6T136 85T57 352Q57 527 135 616T365 706Q516 706 595 617T674 352Q674 177 595 86T365 -6Q215 -6 136 85ZM471 70T527 142T583 352Q583 489 527 559T365 630Q259 630 204 560T148 352Q148
214 203 142T365 70Q471 70 527 142ZM294 752T287 755T280 765Q280 773 291 784L345 841Q358 854 373 859T421 864Q445 864 459 860T474 846Q474 837 467 830T434 806L380 773Q359 760 345 756T306 752Q294 752 287 755Z" />
<glyph unicode="&#xd4;" glyph-name="Ocircumflex" horiz-adv-x="731" d="M215 -6T136 85T57 352Q57 527 135 616T365 706Q516 706 595 617T674 352Q674 177 595 86T365 -6Q215 -6 136 85ZM471 70T527 142T583 352Q583 489 527 559T365 630Q259 630 204 560T148
352Q148 214 203 142T365 70Q471 70 527 142ZM236 742T236 753Q236 758 238 762T250 777L302 832Q314 845 324 849T356 854H376Q399 854 407 851T430 832L480 779Q491 768 493 763T496 753Q496 742 474 742Q452 742 433 755L366 799L302 757Q280 742 258 742Q236
742 236 753Z" />
<glyph unicode="&#xd5;" glyph-name="Otilde" horiz-adv-x="731" d="M215 -6T136 85T57 352Q57 527 135 616T365 706Q516 706 595 617T674 352Q674 177 595 86T365 -6Q215 -6 136 85ZM471 70T527 142T583 352Q583 489 527 559T365 630Q259 630 204 560T148 352Q148
214 203 142T365 70Q471 70 527 142ZM206 756T195 762T184 777Q184 783 187 790Q200 824 226 842T285 861Q306 861 327 855T376 837Q400 827 415 823T444 818Q461 818 472 825T497 847Q509 861 517 861Q526 861 536 854T547 838Q547 833 543 825Q508 756 446 756Q424
756 405 761T351 780Q326 790 312 794T284 799Q267 799 257 792T234 771Q223 756 215 756Q206 756 195 762Z" />
<glyph unicode="&#xd6;" glyph-name="Odieresis" horiz-adv-x="731" d="M215 -6T136 85T57 352Q57 527 135 616T365 706Q516 706 595 617T674 352Q674 177 595 86T365 -6Q215 -6 136 85ZM471 70T527 142T583 352Q583 489 527 559T365 630Q259 630 204 560T148
352Q148 214 203 142T365 70Q471 70 527 142ZM263 758T253 763T242 780V836Q242 847 252 852T286 858Q309 858 319 853T330 836V780Q330 769 320 764T286 758Q263 758 253 763ZM423 758T413 763T402 780V836Q402 847 412 852T446 858Q469 858 479 853T490 836V780Q490
769 480 764T446 758Q423 758 413 763Z" />
<glyph unicode="&#xd7;" glyph-name="multiply" horiz-adv-x="560" d="M88 0T71 16T54 41Q54 47 63 56L234 228L63 399Q55 407 55 413Q55 420 71 437T96 454Q103 454 110 447L281 275L452 447Q459 454 466 454Q474 454 490 438T506 413Q506 406 499 399L328 228L499
56Q506 49 506 42Q506 33 489 17T466 0Q460 0 452 8L281 181L110 8Q102 0 96 0Q88 0 71 16Z" />
<glyph unicode="&#xd8;" glyph-name="Oslash" horiz-adv-x="731" d="M674 515T674 352Q674 177 595 86T365 -6Q216 -6 137 84L70 10Q63 1 56 1Q49 1 42 8T34 22Q34 29 40 36L113 117Q57 205 57 352Q57 527 135 616T365 706Q501 706 579 634L633 694Q640 702 647
702Q654 702 661 695T669 682Q669 676 663 668L605 604Q674 515 674 352ZM148 254T177 188L520 568Q464 630 365 630Q259 630 204 560T148 352Q148 254 177 188ZM471 70T527 142T583 352Q583 467 544 535L197 151Q254 70 365 70Q471 70 527 142Z" />
<glyph unicode="&#xd9;" glyph-name="Ugrave" horiz-adv-x="712" d="M224 -6T154 54T83 224V680Q83 702 123 702H131Q171 702 171 680V221Q171 177 195 143T261 89T356 70Q409 70 451 89T517 143T541 221V680Q541 702 581 702H589Q629 702 629 680V224Q629 115
558 55T356 -6Q224 -6 154 54ZM391 752T377 756T342 773L288 806Q263 822 256 829T248 846Q248 855 262 859T301 864Q333 864 348 859T377 841L431 784Q442 773 442 765Q442 759 435 756T416 752Q391 752 377 756Z" />
<glyph unicode="&#xda;" glyph-name="Uacute" horiz-adv-x="712" d="M224 -6T154 54T83 224V680Q83 702 123 702H131Q171 702 171 680V221Q171 177 195 143T261 89T356 70Q409 70 451 89T517 143T541 221V680Q541 702 581 702H589Q629 702 629 680V224Q629 115
558 55T356 -6Q224 -6 154 54ZM284 752T277 755T270 765Q270 773 281 784L335 841Q348 854 363 859T411 864Q435 864 449 860T464 846Q464 837 457 830T424 806L370 773Q349 760 335 756T296 752Q284 752 277 755Z" />
<glyph unicode="&#xdb;" glyph-name="Ucircumflex" horiz-adv-x="712" d="M224 -6T154 54T83 224V680Q83 702 123 702H131Q171 702 171 680V221Q171 177 195 143T261 89T356 70Q409 70 451 89T517 143T541 221V680Q541 702 581 702H589Q629 702 629 680V224Q629
115 558 55T356 -6Q224 -6 154 54ZM226 742T226 753Q226 758 228 762T240 777L292 832Q304 845 314 849T346 854H366Q389 854 397 851T420 832L470 779Q481 768 483 763T486 753Q486 742 464 742Q442 742 423 755L356 799L292 757Q270 742 248 742Q226 742 226
753Z" />
<glyph unicode="&#xdc;" glyph-name="Udieresis" horiz-adv-x="712" d="M224 -6T154 54T83 224V680Q83 702 123 702H131Q171 702 171 680V221Q171 177 195 143T261 89T356 70Q409 70 451 89T517 143T541 221V680Q541 702 581 702H589Q629 702 629 680V224Q629
115 558 55T356 -6Q224 -6 154 54ZM253 758T243 763T232 780V836Q232 847 242 852T276 858Q299 858 309 853T320 836V780Q320 769 310 764T276 758Q253 758 243 763ZM413 758T403 763T392 780V836Q392 847 402 852T436 858Q459 858 469 853T480 836V780Q480 769
470 764T436 758Q413 758 403 763Z" />
<glyph unicode="&#xdd;" glyph-name="Yacute" horiz-adv-x="559" d="M235 -2T235 20V359L26 667Q18 678 18 685Q18 702 64 702H75Q92 702 102 699T118 687L282 441L450 688Q459 702 495 702H502Q523 701 532 697T541 685Q541 678 533 667L323 356V20Q323 -2 283
-2H275Q235 -2 235 20ZM208 752T201 755T194 765Q194 773 205 784L259 841Q272 854 287 859T335 864Q359 864 373 860T388 846Q388 837 381 830T348 806L294 773Q273 760 259 756T220 752Q208 752 201 755Z" />
<glyph unicode="&#xde;" glyph-name="Thorn" horiz-adv-x="570" d="M85 -2T85 20V680Q85 702 125 702H133Q173 702 173 680V578H318Q406 578 473 536T541 382Q541 299 502 253T415 192T328 176H173V20Q173 -2 133 -2H125Q85 -2 85 20ZM329 252Q372 252 411 281T450
382Q450 449 410 475T315 502H173V252H329Z" />
<glyph unicode="&#xdf;" glyph-name="germandbls" horiz-adv-x="554" d="M90 -2T90 20V521Q90 575 114 617T183 682T287 706Q377 706 431 666T485 536Q485 492 457 449T383 387V384Q445 369 479 321T514 206Q514 141 486 95T408 24T299 0H267Q257 0 252 7T247
30V42Q247 58 252 65T267 72H300Q354 72 390 108T426 206Q426 267 390 303T300 340H267Q257 340 252 347T247 370V382Q247 398 252 405T267 412H277Q307 412 334 427T379 469T396 528Q396 587 365 610T285 634Q234 634 204 604T174 521V20Q174 -2 134 -2H130Q90
-2 90 20Z" />
<glyph unicode="&#xe0;" glyph-name="agrave" horiz-adv-x="545" d="M143 -6T96 32T49 144Q49 223 96 262T213 313T381 326V373Q381 410 355 433T271 457Q227 457 194 447T139 426T115 415Q105 415 93 435T80 465Q80 478 106 493T177 518T268 529Q361 529 413
488T465 372V148Q465 82 471 54T477 22Q477 10 458 5T423 -1Q409 -1 403 14T393 47T388 69Q320 -6 220 -6Q143 -6 96 32ZM273 67T308 85T381 136V254Q306 253 259 248T175 220T139 149Q139 109 160 88T224 67Q273 67 308 85ZM273 576T262 580T236 600L182 660Q155
690 155 702Q155 718 203 718Q233 718 245 712T265 692L305 616Q316 594 316 589Q316 576 294 576Q273 576 262 580Z" />
<glyph unicode="&#xe1;" glyph-name="aacute" horiz-adv-x="545" d="M143 -6T96 32T49 144Q49 223 96 262T213 313T381 326V373Q381 410 355 433T271 457Q227 457 194 447T139 426T115 415Q105 415 93 435T80 465Q80 478 106 493T177 518T268 529Q361 529 413
488T465 372V148Q465 82 471 54T477 22Q477 10 458 5T423 -1Q409 -1 403 14T393 47T388 69Q320 -6 220 -6Q143 -6 96 32ZM273 67T308 85T381 136V254Q306 253 259 248T175 220T139 149Q139 109 160 88T224 67Q273 67 308 85ZM206 576T206 589Q206 594 217 616L257
692Q264 706 276 712T319 718Q367 718 367 702Q367 690 340 660L286 600Q272 585 261 581T228 576Q206 576 206 589Z" />
<glyph unicode="&#xe2;" glyph-name="acircumflex" horiz-adv-x="545" d="M143 -6T96 32T49 144Q49 223 96 262T213 313T381 326V373Q381 410 355 433T271 457Q227 457 194 447T139 426T115 415Q105 415 93 435T80 465Q80 478 106 493T177 518T268 529Q361 529
413 488T465 372V148Q465 82 471 54T477 22Q477 10 458 5T423 -1Q409 -1 403 14T393 47T388 69Q320 -6 220 -6Q143 -6 96 32ZM273 67T308 85T381 136V254Q306 253 259 248T175 220T139 149Q139 109 160 88T224 67Q273 67 308 85ZM152 576T152 589Q152 594 163 616L203
692Q210 706 222 712T265 718H281Q311 718 323 712T343 692L383 616Q394 594 394 589Q394 576 372 576Q355 576 346 580T324 600L274 661L224 600Q211 585 202 581T174 576Q152 576 152 589Z" />
<glyph unicode="&#xe3;" glyph-name="atilde" horiz-adv-x="545" d="M143 -6T96 32T49 144Q49 223 96 262T213 313T381 326V373Q381 410 355 433T271 457Q227 457 194 447T139 426T115 415Q105 415 93 435T80 465Q80 478 106 493T177 518T268 529Q361 529 413
488T465 372V148Q465 82 471 54T477 22Q477 10 458 5T423 -1Q409 -1 403 14T393 47T388 69Q320 -6 220 -6Q143 -6 96 32ZM273 67T308 85T381 136V254Q306 253 259 248T175 220T139 149Q139 109 160 88T224 67Q273 67 308 85ZM113 592T102 597T91 610Q91 616 94
623Q109 660 132 676T187 692Q213 692 259 673Q286 663 300 659T331 654Q348 654 357 661T376 681Q385 694 392 694Q399 694 411 688T424 675Q424 669 420 661Q402 625 380 609T328 593Q310 593 291 598T246 614Q201 631 181 631Q166 631 157 624T140 606Q130 592
122 592Q113 592 102 597Z" />
<glyph unicode="&#xe4;" glyph-name="adieresis" horiz-adv-x="545" d="M143 -6T96 32T49 144Q49 223 96 262T213 313T381 326V373Q381 410 355 433T271 457Q227 457 194 447T139 426T115 415Q105 415 93 435T80 465Q80 478 106 493T177 518T268 529Q361 529 413
488T465 372V148Q465 82 471 54T477 22Q477 10 458 5T423 -1Q409 -1 403 14T393 47T388 69Q320 -6 220 -6Q143 -6 96 32ZM273 67T308 85T381 136V254Q306 253 259 248T175 220T139 149Q139 109 160 88T224 67Q273 67 308 85ZM175 597T165 602T154 619V675Q154 686
164 691T198 697Q221 697 231 692T242 675V619Q242 608 232 603T198 597Q175 597 165 602ZM325 597T315 602T304 619V675Q304 686 314 691T348 697Q371 697 381 692T392 675V619Q392 608 382 603T348 597Q325 597 315 602Z" />
<glyph unicode="&#xe5;" glyph-name="aring" horiz-adv-x="545" d="M143 -6T96 32T49 144Q49 223 96 262T213 313T381 326V373Q381 410 355 433T271 457Q227 457 194 447T139 426T115 415Q105 415 93 435T80 465Q80 478 106 493T177 518T268 529Q361 529 413 488T465
372V148Q465 82 471 54T477 22Q477 10 458 5T423 -1Q409 -1 403 14T393 47T388 69Q320 -6 220 -6Q143 -6 96 32ZM273 67T308 85T381 136V254Q306 253 259 248T175 220T139 149Q139 109 160 88T224 67Q273 67 308 85ZM236 570T212 594T188 654Q188 690 212 714T272
739Q308 739 332 715T357 654Q357 618 333 594T272 570Q236 570 212 594ZM288 618T298 628T309 654Q309 670 299 680T272 691Q257 691 247 681T236 654Q236 639 246 629T272 618Q288 618 298 628Z" />
<glyph unicode="&#xe6;" glyph-name="ae" horiz-adv-x="819" d="M143 -6T96 32T49 144Q49 211 90 247T193 297T342 312Q348 374 370 416Q344 457 271 457Q227 457 194 447T139 426T115 415Q105 415 93 435T80 465Q80 478 106 493T177 518T268 529Q367 529 420
481Q476 529 568 529Q670 529 722 466T774 282Q774 273 762 257T741 241H429Q435 150 471 108T579 66Q621 66 651 76T702 97T725 108Q735 108 747 88T760 58Q760 46 735 31T669 5T580 -6Q460 -6 401 57Q367 29 321 12T220 -6Q143 -6 96 32ZM685 313Q685 457 565
457Q440 457 429 313H685ZM266 67T298 80T362 119Q340 170 339 240Q248 238 194 220T139 149Q139 109 160 88T224 67Q266 67 298 80Z" />
<glyph unicode="&#xe7;" glyph-name="ccedilla" horiz-adv-x="485" d="M455 34T435 23T381 3T306 -6L292 -54Q337 -56 360 -74T383 -125Q383 -210 268 -210Q229 -210 191 -198T153 -167Q153 -141 172 -141Q176 -141 183 -143T195 -147Q235 -161 265 -161Q285 -161
302 -154T319 -126Q319 -109 308 -103T276 -93Q260 -90 253 -87T246 -76Q246 -68 264 -5Q157 3 105 67T52 264Q52 407 120 468T289 529Q347 529 393 515T439 483Q439 470 428 450T407 429Q405 429 403 430T396 433Q342 457 287 457Q142 457 142 266Q142 160 177
113T297 66Q358 66 410 92L421 96Q431 96 443 77T455 45Q455 34 435 23Z" />
<glyph unicode="&#xe8;" glyph-name="egrave" horiz-adv-x="539" d="M175 -6T115 59T55 258Q55 391 114 460T288 529Q390 529 442 463T494 268Q494 259 482 243T461 227H145Q151 144 188 105T299 66Q341 66 371 76T422 97T445 108Q455 108 467 88T480 58Q480 46
455 31T389 5T300 -6Q175 -6 115 59ZM405 299Q405 457 285 457Q156 457 145 299H405ZM275 576T264 580T238 600L184 660Q157 690 157 702Q157 718 205 718Q235 718 247 712T267 692L307 616Q318 594 318 589Q318 576 296 576Q275 576 264 580Z" />
<glyph unicode="&#xe9;" glyph-name="eacute" horiz-adv-x="539" d="M175 -6T115 59T55 258Q55 391 114 460T288 529Q390 529 442 463T494 268Q494 259 482 243T461 227H145Q151 144 188 105T299 66Q341 66 371 76T422 97T445 108Q455 108 467 88T480 58Q480 46
455 31T389 5T300 -6Q175 -6 115 59ZM405 299Q405 457 285 457Q156 457 145 299H405ZM208 576T208 589Q208 594 219 616L259 692Q266 706 278 712T321 718Q369 718 369 702Q369 690 342 660L288 600Q274 585 263 581T230 576Q208 576 208 589Z" />
<glyph unicode="&#xea;" glyph-name="ecircumflex" horiz-adv-x="539" d="M175 -6T115 59T55 258Q55 391 114 460T288 529Q390 529 442 463T494 268Q494 259 482 243T461 227H145Q151 144 188 105T299 66Q341 66 371 76T422 97T445 108Q455 108 467 88T480 58Q480
46 455 31T389 5T300 -6Q175 -6 115 59ZM405 299Q405 457 285 457Q156 457 145 299H405ZM154 576T154 589Q154 594 165 616L205 692Q212 706 224 712T267 718H283Q313 718 325 712T345 692L385 616Q396 594 396 589Q396 576 374 576Q357 576 348 580T326 600L276
661L226 600Q213 585 204 581T176 576Q154 576 154 589Z" />
<glyph unicode="&#xeb;" glyph-name="edieresis" horiz-adv-x="539" d="M175 -6T115 59T55 258Q55 391 114 460T288 529Q390 529 442 463T494 268Q494 259 482 243T461 227H145Q151 144 188 105T299 66Q341 66 371 76T422 97T445 108Q455 108 467 88T480 58Q480
46 455 31T389 5T300 -6Q175 -6 115 59ZM405 299Q405 457 285 457Q156 457 145 299H405ZM177 597T167 602T156 619V675Q156 686 166 691T200 697Q223 697 233 692T244 675V619Q244 608 234 603T200 597Q177 597 167 602ZM327 597T317 602T306 619V675Q306 686 316
691T350 697Q373 697 383 692T394 675V619Q394 608 384 603T350 597Q327 597 317 602Z" />
<glyph unicode="&#xec;" glyph-name="igrave" horiz-adv-x="265" d="M91 -2T91 20V503Q91 525 131 525H135Q175 525 175 503V20Q175 -2 135 -2H131Q91 -2 91 20ZM133 576T122 580T96 600L42 660Q15 690 15 702Q15 718 63 718Q93 718 105 712T125 692L165 616Q176
594 176 589Q176 576 154 576Q133 576 122 580Z" />
<glyph unicode="&#xed;" glyph-name="iacute" horiz-adv-x="265" d="M91 -2T91 20V503Q91 525 131 525H135Q175 525 175 503V20Q175 -2 135 -2H131Q91 -2 91 20ZM66 576T66 589Q66 594 77 616L117 692Q124 706 136 712T179 718Q227 718 227 702Q227 690 200 660L146
600Q132 585 121 581T88 576Q66 576 66 589Z" />
<glyph unicode="&#xee;" glyph-name="icircumflex" horiz-adv-x="265" d="M91 -2T91 20V503Q91 525 131 525H135Q175 525 175 503V20Q175 -2 135 -2H131Q91 -2 91 20ZM12 576T12 589Q12 594 23 616L63 692Q70 706 82 712T125 718H141Q171 718 183 712T203 692L243
616Q254 594 254 589Q254 576 232 576Q215 576 206 580T184 600L134 661L84 600Q71 585 62 581T34 576Q12 576 12 589Z" />
<glyph unicode="&#xef;" glyph-name="idieresis" horiz-adv-x="265" d="M91 -2T91 20V503Q91 525 131 525H135Q175 525 175 503V20Q175 -2 135 -2H131Q91 -2 91 20ZM35 597T25 602T14 619V675Q14 686 24 691T58 697Q81 697 91 692T102 675V619Q102 608 92 603T58
597Q35 597 25 602ZM185 597T175 602T164 619V675Q164 686 174 691T208 697Q231 697 241 692T252 675V619Q252 608 242 603T208 597Q185 597 175 602Z" />
<glyph unicode="&#xf0;" glyph-name="eth" horiz-adv-x="569" d="M453 535T483 444T514 259Q514 129 457 62T287 -6Q174 -6 115 62T55 259Q55 389 115 459T287 529Q331 529 367 517Q345 565 321 607L235 595Q225 595 217 605T209 627Q209 639 224 640L296 650Q285
665 278 678T270 698Q270 711 286 712Q300 714 313 714Q329 714 339 702Q359 678 372 660L450 671Q462 671 468 659T475 639Q475 628 460 626L400 618Q453 535 483 444ZM357 66T392 113T427 261Q427 361 392 409T284 457Q211 457 176 409T141 261Q141 161 176 114T284
66Q357 66 392 113Z" />
<glyph unicode="&#xf1;" glyph-name="ntilde" horiz-adv-x="557" d="M86 -2T86 20V371Q86 437 80 465T74 497Q74 509 93 514T128 520Q142 520 148 506T158 475T163 454Q195 489 236 509T319 529Q395 529 438 486T482 367V20Q482 -2 442 -2H438Q398 -2 398 20V359Q398
405 372 430T296 456Q262 456 229 437T170 386V20Q170 -2 130 -2H126Q86 -2 86 20ZM119 592T108 597T97 610Q97 616 100 623Q115 660 138 676T193 692Q219 692 265 673Q292 663 306 659T337 654Q354 654 363 661T382 681Q391 694 398 694Q405 694 417 688T430 675Q430
669 426 661Q408 625 386 609T334 593Q316 593 297 598T252 614Q207 631 187 631Q172 631 163 624T146 606Q136 592 128 592Q119 592 108 597Z" />
<glyph unicode="&#xf2;" glyph-name="ograve" horiz-adv-x="569" d="M174 -6T115 62T55 259Q55 389 115 459T287 529Q397 529 455 460T514 259Q514 129 457 62T287 -6Q174 -6 115 62ZM357 66T392 113T427 261Q427 361 392 409T284 457Q211 457 177 410T143 261Q143
161 177 114T284 66Q357 66 392 113ZM285 576T274 580T248 600L194 660Q167 690 167 702Q167 718 215 718Q245 718 257 712T277 692L317 616Q328 594 328 589Q328 576 306 576Q285 576 274 580Z" />
<glyph unicode="&#xf3;" glyph-name="oacute" horiz-adv-x="569" d="M174 -6T115 62T55 259Q55 389 115 459T287 529Q397 529 455 460T514 259Q514 129 457 62T287 -6Q174 -6 115 62ZM357 66T392 113T427 261Q427 361 392 409T284 457Q211 457 177 410T143 261Q143
161 177 114T284 66Q357 66 392 113ZM218 576T218 589Q218 594 229 616L269 692Q276 706 288 712T331 718Q379 718 379 702Q379 690 352 660L298 600Q284 585 273 581T240 576Q218 576 218 589Z" />
<glyph unicode="&#xf4;" glyph-name="ocircumflex" horiz-adv-x="569" d="M174 -6T115 62T55 259Q55 389 115 459T287 529Q397 529 455 460T514 259Q514 129 457 62T287 -6Q174 -6 115 62ZM357 66T392 113T427 261Q427 361 392 409T284 457Q211 457 177 410T143
261Q143 161 177 114T284 66Q357 66 392 113ZM164 576T164 589Q164 594 175 616L215 692Q222 706 234 712T277 718H293Q323 718 335 712T355 692L395 616Q406 594 406 589Q406 576 384 576Q367 576 358 580T336 600L286 661L236 600Q223 585 214 581T186 576Q164
576 164 589Z" />
<glyph unicode="&#xf5;" glyph-name="otilde" horiz-adv-x="569" d="M174 -6T115 62T55 259Q55 389 115 459T287 529Q397 529 455 460T514 259Q514 129 457 62T287 -6Q174 -6 115 62ZM357 66T392 113T427 261Q427 361 392 409T284 457Q211 457 177 410T143 261Q143
161 177 114T284 66Q357 66 392 113ZM125 592T114 597T103 610Q103 616 106 623Q121 660 144 676T199 692Q225 692 271 673Q298 663 312 659T343 654Q360 654 369 661T388 681Q397 694 404 694Q411 694 423 688T436 675Q436 669 432 661Q414 625 392 609T340 593Q322
593 303 598T258 614Q213 631 193 631Q178 631 169 624T152 606Q142 592 134 592Q125 592 114 597Z" />
<glyph unicode="&#xf6;" glyph-name="odieresis" horiz-adv-x="569" d="M174 -6T115 62T55 259Q55 389 115 459T287 529Q397 529 455 460T514 259Q514 129 457 62T287 -6Q174 -6 115 62ZM357 66T392 113T427 261Q427 361 392 409T284 457Q211 457 177 410T143
261Q143 161 177 114T284 66Q357 66 392 113ZM187 597T177 602T166 619V675Q166 686 176 691T210 697Q233 697 243 692T254 675V619Q254 608 244 603T210 597Q187 597 177 602ZM337 597T327 602T316 619V675Q316 686 326 691T360 697Q383 697 393 692T404 675V619Q404
608 394 603T360 597Q337 597 327 602Z" />
<glyph unicode="&#xf7;" glyph-name="divide" horiz-adv-x="560" d="M238 368T238 390V441Q238 463 278 463H282Q322 463 322 441V390Q322 368 282 368H278Q238 368 238 390ZM60 194T55 201T50 224V237Q50 253 55 260T70 267H490Q501 267 505 260T510 237V224Q510
208 506 201T490 194H70Q60 194 55 201ZM238 -2T238 20V71Q238 93 278 93H282Q322 93 322 71V20Q322 -2 282 -2H278Q238 -2 238 20Z" />
<glyph unicode="&#xf8;" glyph-name="oslash" horiz-adv-x="569" d="M470 440Q514 373 514 259Q514 129 457 62T287 -6Q188 -6 131 45L101 10Q95 2 87 2Q80 2 72 9T64 23Q64 28 71 37L104 75Q55 142 55 259Q55 389 115 459T287 529Q385 529 444 472L479 513Q487
521 493 521Q499 521 507 514T515 500Q515 494 509 486L470 440ZM143 187T161 142L391 410Q357 457 284 457Q211 457 177 410T143 261Q143 187 161 142ZM427 330T411 372L183 106Q217 66 284 66Q357 66 392 113T427 261Q427 330 411 372Z" />
<glyph unicode="&#xf9;" glyph-name="ugrave" horiz-adv-x="557" d="M162 -6T119 37T75 156V503Q75 525 115 525H119Q159 525 159 503V164Q159 118 185 93T261 67Q295 67 328 86T387 137V503Q387 525 427 525H431Q471 525 471 503V148Q471 82 477 54T483 22Q483
10 464 5T429 -1Q415 -1 409 14T399 47T394 69Q362 34 321 14T238 -6Q162 -6 119 37ZM271 576T260 580T234 600L180 660Q153 690 153 702Q153 718 201 718Q231 718 243 712T263 692L303 616Q314 594 314 589Q314 576 292 576Q271 576 260 580Z" />
<glyph unicode="&#xfa;" glyph-name="uacute" horiz-adv-x="557" d="M162 -6T119 37T75 156V503Q75 525 115 525H119Q159 525 159 503V164Q159 118 185 93T261 67Q295 67 328 86T387 137V503Q387 525 427 525H431Q471 525 471 503V148Q471 82 477 54T483 22Q483
10 464 5T429 -1Q415 -1 409 14T399 47T394 69Q362 34 321 14T238 -6Q162 -6 119 37ZM204 576T204 589Q204 594 215 616L255 692Q262 706 274 712T317 718Q365 718 365 702Q365 690 338 660L284 600Q270 585 259 581T226 576Q204 576 204 589Z" />
<glyph unicode="&#xfb;" glyph-name="ucircumflex" horiz-adv-x="557" d="M162 -6T119 37T75 156V503Q75 525 115 525H119Q159 525 159 503V164Q159 118 185 93T261 67Q295 67 328 86T387 137V503Q387 525 427 525H431Q471 525 471 503V148Q471 82 477 54T483
22Q483 10 464 5T429 -1Q415 -1 409 14T399 47T394 69Q362 34 321 14T238 -6Q162 -6 119 37ZM150 576T150 589Q150 594 161 616L201 692Q208 706 220 712T263 718H279Q309 718 321 712T341 692L381 616Q392 594 392 589Q392 576 370 576Q353 576 344 580T322 600L272
661L222 600Q209 585 200 581T172 576Q150 576 150 589Z" />
<glyph unicode="&#xfc;" glyph-name="udieresis" horiz-adv-x="557" d="M162 -6T119 37T75 156V503Q75 525 115 525H119Q159 525 159 503V164Q159 118 185 93T261 67Q295 67 328 86T387 137V503Q387 525 427 525H431Q471 525 471 503V148Q471 82 477 54T483 22Q483
10 464 5T429 -1Q415 -1 409 14T399 47T394 69Q362 34 321 14T238 -6Q162 -6 119 37ZM173 597T163 602T152 619V675Q152 686 162 691T196 697Q219 697 229 692T240 675V619Q240 608 230 603T196 597Q173 597 163 602ZM323 597T313 602T302 619V675Q302 686 312
691T346 697Q369 697 379 692T390 675V619Q390 608 380 603T346 597Q323 597 313 602Z" />
<glyph unicode="&#xfd;" glyph-name="yacute" horiz-adv-x="481" d="M462 525T462 508Q462 503 459 494L202 -187Q194 -208 155 -208H140Q107 -208 107 -192Q107 -188 112 -175L196 29L21 495Q18 504 18 508Q18 525 61 525H69Q104 525 109 509L211 238Q227 194
243 137H245Q247 144 249 150T253 163L278 238L378 509Q383 525 419 525H422Q462 525 462 508ZM174 576T174 589Q174 594 185 616L225 692Q232 706 244 712T287 718Q335 718 335 702Q335 690 308 660L254 600Q240 585 229 581T196 576Q174 576 174 589Z" />
<glyph unicode="&#xfe;" glyph-name="thorn" horiz-adv-x="573" d="M86 -208T86 -186V730Q86 752 126 752H130Q170 752 170 730V461Q239 529 322 529Q381 529 425 495T492 399T516 260Q516 176 491 116T419 25T313 -6Q269 -6 236 7T170 45V-186Q170 -208 130 -208H126Q86
-208 86 -186ZM360 68T394 116T428 254Q428 351 396 403T305 456Q271 456 236 438T170 387V113Q224 68 294 68Q360 68 394 116Z" />
<glyph unicode="&#xff;" glyph-name="ydieresis" horiz-adv-x="481" d="M462 525T462 508Q462 503 459 494L202 -187Q194 -208 155 -208H140Q107 -208 107 -192Q107 -188 112 -175L196 29L21 495Q18 504 18 508Q18 525 61 525H69Q104 525 109 509L211 238Q227
194 243 137H245Q247 144 249 150T253 163L278 238L378 509Q383 525 419 525H422Q462 525 462 508ZM143 597T133 602T122 619V675Q122 686 132 691T166 697Q189 697 199 692T210 675V619Q210 608 200 603T166 597Q143 597 133 602ZM293 597T283 602T272 619V675Q272
686 282 691T316 697Q339 697 349 692T360 675V619Q360 608 350 603T316 597Q293 597 283 602Z" />
<glyph unicode="&#x2013;" glyph-name="endash" horiz-adv-x="500" d="M65 230T60 237T55 260V270Q55 286 60 293T75 300H425Q436 300 440 293T445 270V260Q445 244 441 237T425 230H75Q65 230 60 237Z" />
<glyph unicode="&#x2014;" glyph-name="emdash" horiz-adv-x="1000" d="M75 230T70 237T65 260V270Q65 286 70 293T85 300H915Q926 300 930 293T935 270V260Q935 244 931 237T915 230H85Q75 230 70 237Z" />
<glyph unicode="&#x2018;" glyph-name="quoteleft" horiz-adv-x="212" d="M78 515T68 522T57 543Q57 599 75 643T117 713T160 739Q171 739 180 736T189 724Q189 718 180 700Q146 632 146 547Q146 532 136 524T106 515H97Q78 515 68 522Z" />
<glyph unicode="&#x2019;" glyph-name="quoteright" horiz-adv-x="212" d="M50 530T41 533T32 545Q32 551 41 569Q75 637 75 722Q75 737 85 745T115 754H124Q143 754 153 747T164 726Q164 670 146 626T104 556T61 530Q50 530 41 533Z" />
<glyph unicode="&#x201a;" glyph-name="quotesinglbase" horiz-adv-x="198" d="M32 -115T23 -112T14 -100Q14 -94 23 -76Q57 -8 57 77Q57 92 67 100T97 109H106Q125 109 135 102T146 81Q146 25 128 -19T86 -89T43 -115Q32 -115 23 -112Z" />
<glyph unicode="&#x201c;" glyph-name="quotedblleft" horiz-adv-x="350" d="M209 515T199 522T188 543Q188 599 206 643T248 713T291 739Q302 739 311 736T320 724Q320 718 311 700Q277 632 277 547Q277 532 267 524T237 515H228Q209 515 199 522ZM326 515T316
522T305 543Q305 599 323 643T365 713T408 739Q419 739 428 736T437 724Q437 718 428 700Q394 632 394 547Q394 532 384 524T354 515H345Q326 515 316 522Z" />
<glyph unicode="&#x201d;" glyph-name="quotedblright" horiz-adv-x="350" d="M197 530T188 533T179 545Q179 551 188 569Q222 637 222 722Q222 737 232 745T262 754H271Q290 754 300 747T311 726Q311 670 293 626T251 556T208 530Q197 530 188 533ZM58 530T49
533T40 545Q40 551 49 569Q83 637 83 722Q83 737 93 745T123 754H132Q151 754 161 747T172 726Q172 670 154 626T112 556T69 530Q58 530 49 533Z" />
<glyph unicode="&#x201e;" glyph-name="quotedblbase" horiz-adv-x="350" d="M194 -116T185 -113T176 -101Q176 -95 185 -77Q219 -9 219 76Q219 91 229 99T259 108H268Q287 108 297 101T308 80Q308 24 290 -20T248 -90T205 -116Q194 -116 185 -113ZM55 -116T46
-113T37 -101Q37 -95 46 -77Q80 -9 80 76Q80 91 90 99T120 108H129Q148 108 158 101T169 80Q169 24 151 -20T109 -90T66 -116Q55 -116 46 -113Z" />
<glyph unicode="&#x2022;" glyph-name="bullet" horiz-adv-x="336" d="M116 201T80 237T43 326Q43 379 79 415T168 452Q221 452 257 416T294 326Q294 274 258 238T168 201Q116 201 80 237Z" />
<glyph unicode="&#x2039;" glyph-name="guilsinglleft" horiz-adv-x="300" d="M192 61T181 74L51 230Q38 246 38 258Q38 270 51 286L181 442Q192 454 203 454Q213 454 225 444T238 422Q238 413 230 402L119 258L230 113Q238 102 238 94Q238 85 227 73T203 61Q192
61 181 74Z" />
<glyph unicode="&#x203a;" glyph-name="guilsinglright" horiz-adv-x="300" d="M86 61T74 73T62 94Q62 102 70 113L181 258L70 402Q62 413 62 422Q62 434 74 444T97 454Q109 454 119 442L249 286Q262 270 262 258Q262 246 249 230L119 74Q108 61 97 61Q86 61 74 73Z" />
</font>
</defs>
</svg>
